#TITLE:One Winged Angel (Full Version);
#SUBTITLE:By Hellowen66601@hotmail.com;
#ARTIST:植松伸夫;
#TITLETRANSLIT:;
#SUBTITLETRANSLIT:;
#ARTISTTRANSLIT:Nobuo Uematsu;
#CREDIT:;
#BANNER:bn.JPG;
#BACKGROUND:bg.JPG;
#LYRICSPATH:;
#CDTITLE:321STARS-banner.png;
#MUSIC:+_+_s%+翼a_r-c使zAdvent_ One-Winged Angelz.mp3;
#OFFSET:0.230;
#SAMPLESTART:34.440;
#SAMPLELENGTH:12.000;
#SELECTABLE:YES;
#BPMS:0.000=200.000,14.875=300.039,16.000=200.480,16.875=300.899,18.000=200.480,18.875=300.879,20.000=200.160,20.875=300.579,22.000=200.180,22.875=290.360,24.000=200.160,24.875=300.200,26.000=200.160,26.875=300.199,28.000=200.560,28.875=300.179,30.000=250.160,47.125=340.399,63.625=230.020,67.625=330.439,171.625=110.179,174.250=250.599,198.500=240.680,198.750=230.519,199.000=220.519,199.250=210.440,199.500=155.999,199.625=123.579,199.750=101.559,199.875=98.519,200.000=85.119,202.125=170.500,205.875=241.760,216.500=172.540,216.625=91.739,216.750=40.119,216.875=12.479,217.438=159.520,217.500=160.520,220.063=200.380,220.625=299.999,220.875=250.020,220.938=200.380,221.000=150.539,221.063=100.339,221.125=50.319,221.813=160.520,224.438=215.760,225.000=191.340,225.063=154.120,225.125=102.499,225.188=77.279,225.250=36.439,225.688=160.860,227.688=200.660,228.500=300.859,228.688=250.240,228.750=200.399,228.813=150.959,228.875=100.139,228.938=50.919,229.000=10.499,229.063=230.060,230.375=99.999,232.375=85.379,233.625=60.939,234.625=45.319,235.375=171.760,236.500=200.560,238.250=230.580,256.500=190.560,269.500=250.560,279.500=100.520,279.750=250.540,283.000=100.340,283.250=250.560,295.000=100.500,295.250=250.540,298.500=100.440,298.750=250.560,301.750=100.720,302.000=277.380,317.250=150.080,318.500=80.439,318.750=280.900,333.125=190.879,333.375=300.539,333.875=130.639,339.125=250.260,339.500=150.219,341.625=250.640,342.000=150.199,349.000=250.620,349.375=150.219,351.625=270.740,352.000=175.119,352.125=320.359,356.938=320.559,357.000=20.619,357.063=152.619,357.125=300.719,375.750=250.319,375.875=200.479,376.000=100.859,381.250=199.999,382.000=330.418,382.500=200.019,383.250=330.418,383.750=199.999,384.500=330.238,385.000=200.019,385.750=330.618,386.250=199.999,387.000=330.038,387.500=200.019,388.250=330.798,388.750=199.999,389.500=330.418,390.000=200.019,390.750=330.838,391.250=199.999,392.000=330.018,392.500=200.019,393.250=330.838,393.750=199.999,394.500=330.058,395.000=200.019,395.750=330.278,396.250=199.999,397.000=330.598,397.500=200.019,398.250=330.438,398.750=199.999,399.500=330.818,400.000=200.019,400.750=330.458,401.250=199.999,402.000=330.058,402.500=200.019,403.250=330.838,403.750=199.999,404.500=330.598,405.000=200.019,405.750=330.438,406.250=199.999,407.000=330.018,407.500=200.019,408.250=330.038,408.750=199.999,409.500=330.818,410.000=199.999,410.750=330.798,411.250=200.419,412.000=330.778,412.500=200.479,413.250=330.758,413.750=200.959,414.500=330.738,415.000=199.999,415.750=330.718,416.250=200.699,417.000=330.698,417.500=200.439,418.250=330.678,418.750=200.399,419.500=330.658,420.000=200.039,420.750=330.638,421.250=200.059,422.000=330.618,422.500=200.599,423.250=330.598,423.750=200.199,424.500=330.578,425.000=200.199,425.750=330.558,426.250=200.539,427.000=330.538,427.500=200.519,428.250=330.518,428.750=200.459,429.500=330.499,430.000=200.339,430.750=330.479,431.250=200.239,432.000=330.459,432.500=200.439,433.250=330.439,433.750=200.199,434.500=330.419,435.000=200.259,435.750=330.399,436.250=200.379,437.000=330.398,437.500=200.359,438.250=330.178,438.750=200.339,439.500=330.358,440.000=200.319,440.750=330.338,441.250=200.299,442.000=330.918,442.500=200.279,443.250=330.478,457.000=149.619,457.250=330.498,461.875=150.839,462.250=330.518,477.625=150.099,478.000=330.538,482.625=150.119,483.000=330.558,484.750=120.539,485.875=260.159,500.000=200.499,501.500=100.638,501.750=250.139,515.125=100.298,524.125=199.999,532.375=315.218,606.000=179.998,617.875=140.138,622.625=69.998,628.875=100.818,630.625=149.998,632.875=199.998,636.250=249.998,640.000=299.998,645.125=280.798,649.625=260.558,654.000=239.998,657.875=266.018,662.250=286.438,666.875=299.997,701.125=150.777,713.313=149.517,713.313=315.178,713.333=192.000,713.500=315.219,734.125=370.078,917.000=370.553,917.250=370.993,917.272=192.000,917.313=191.960,917.313=192.040,917.375=192.000,917.500=370.458,981.500=370.778,1021.625=399.998,1126.875=414.998,1368.750=150.000,1399.000=180.000,1400.750=210.000,1402.500=240.000,1404.375=270.000,1406.125=299.999,1407.250=250.580,1407.313=200.740,1407.375=150.140,1407.438=100.679,1407.500=50.039,1407.563=30.399,1407.625=7.999,1407.813=180.420,1408.500=180.000,1410.250=210.000,1412.000=240.000,1413.875=270.000,1415.625=299.999,1416.750=250.540,1416.813=200.500,1416.875=150.099,1416.938=100.079,1417.000=50.859,1417.063=30.059,1417.125=8.239,1417.250=130.299,1422.500=150.140,1427.375=180.960,1433.375=200.580,1439.875=241.000,1471.250=310.239,1552.000=200.000,1556.000=100.559,1560.500=200.000,1564.500=100.379,1570.875=200.800,1573.875=300.239,1578.625=400.098,1598.125=200.300,1601.375=2008.008,1628.125=150.699;
#STOPS:108.625=0.220
,109.500=0.920
,112.125=0.220
,113.750=1.000
,202.250=0.020
,202.375=0.020
,202.500=0.020
,202.625=0.020
,202.750=0.020
,202.875=0.020
,203.000=0.020
,203.125=0.020
,203.250=0.020
,203.375=0.020
,203.500=0.020
,203.625=0.020
,203.750=0.020
,203.875=0.020
,204.000=0.020
,204.125=0.020
,204.250=0.020
,204.375=0.020
,204.500=0.020
,204.625=0.020
,204.750=0.020
,204.875=0.020
,205.000=0.020
,205.125=0.020
,205.250=0.020
,205.375=0.020
,205.500=0.020
,205.625=0.020
,205.750=0.020
,205.875=0.020
,300.125=0.040
,300.625=0.040
,333.250=0.080
,352.063=0.060
,485.000=0.040
,485.500=0.040
,485.875=0.040
,1628.000=0.300
;
#BGCHANGES:;
// cache tags:
#FIRSTBEAT:2.250;
#LASTBEAT:1628.000;
#SONGFILENAME:Songs/Music V.I.P ^_^/One Winged Angel ac/owa.sm;
#HASMUSIC:1;
#HASBANNER:1;
#MUSICLENGTH:367.104;
// end cache tags

//---------------dance-single - El Desparche----------------
#NOTES:
     dance-single:
     El Desparche:
     Hard:
     12:
     1.000,1.000,1.000,1.000,1.000,1806.000,472.000,844.000,0.000,64.000:
0000
0000
0000
0000
0000
0000
0000
0000
0000
0000
0000
0000
0000
0000
0000
0000
0000
0000
2200
0000
0000
3300
0000
0000
0000
0000
0000
0022
0000
0000
0033
0000
,
0000
0000
0000
0000
0000
0000
0000
0000
0000
2020
0000
0000
3030
0000
0000
0000
0000
0000
0000
0000
0000
0000
0000
2002
0000
0000
3003
0000
0000
0000
0000
0000
,
0000
0000
0000
0202
0000
0000
0303
0000
0000
0000
0000
0000
0000
0000
0000
0000
2200
0000
0000
3300
0000
0000
0000
0000
0000
0000
0000
0000
0000
0220
0000
0000
,
0330
0000
0000
0000
0000
0000
0000
0000
0000
0000
2020
0000
0000
3030
0000
0000
0000
0000
0000
0000
0000
0000
0000
0020
0000
0000
0000
0000
0000
0000
0000
0000
,
1030
0000
0000
0000
0000
0000
0000
0200
0000
0000
0000
0000
0000
0000
0000
0000
0310
0000
0000
0000
0000
0000
0000
2000
0000
0000
0000
0000
0000
0000
0000
0000
,
3100
0000
0000
0000
0000
0000
0000
0002
0000
0000
0000
0000
0000
0000
0000
0000
1003
0000
0000
0000
0000
0000
0000
0200
0000
0000
0000
0000
0000
0000
0000
0000
,
0310
0000
0000
0000
0000
0000
0000
0002
0000
0000
0000
0000
0000
0000
0000
0000
0103
0000
0000
0000
0000
0000
0000
0020
0000
0000
0000
0000
0000
0000
0000
0000
,
0130
0000
0000
0000
0000
0000
0000
2000
0000
0000
0000
0000
0000
0000
0000
0000
0020
3030
0000
0000
0000
0000
0000
0000
0000
0000
0022
0000
0000
0033
0000
0000
,
0000
0000
0000
0000
0000
0000
0000
0000
0000
2200
0000
0000
3300
0000
0000
0000
0000
0000
0000
0000
0000
0000
0000
0000
0000
0000
0220
0000
0000
0330
0000
0000
,
0000
0000
0000
0000
0000
0000
0000
0000
0000
2002
0000
0000
3003
0000
0000
0000
0000
0000
0000
0000
0000
0000
0000
0000
0000
0202
0000
0000
0303
0000
0000
0000
,
0000
0000
0000
0000
0000
0000
0000
0000
0000
2020
0000
0000
3030
0000
0000
0000
0000
0000
0000
0000
0000
0000
0000
0000
0000
0022
0000
0000
0033
0000
0000
0000
,
0000
0000
0000
0000
0000
0000
0000
0000
2200
0000
0000
3300
0000
0000
0000
0000
0000
0000
0000
0000
0000
0000
0000
0000
0000
1001
0000
0000
0000
0100
0000
0000
,
0000
0010
0000
0000
0000
0100
0000
0000
0000
0010
0000
0000
0000
0100
0000
0000
0000
0010
0000
0000
0000
0100
0000
0000
0000
0010
0000
0000
0000
0100
0000
0000
,
0000
0010
0000
0000
0000
0100
0000
0000
0000
0010
0000
0000
0000
0001
0000
0000
0000
1000
0000
0000
0000
0001
0000
0000
0000
1000
0000
0000
0000
0001
0000
0000
,
0000
1000
0000
0000
0000
0001
0000
0000
0000
1000
0000
0000
0000
0001
0000
0000
0000
1000
0000
0000
0000
0100
0000
0000
0000
0010
0000
0000
0000
0001
0000
0000
,
0000
1000
0000
0000
0000
0100
0000
0000
0000
0010
0000
0000
0000
0001
0000
0000
0000
1000
0000
0000
0000
0100
0000
0000
0000
0010
0000
0000
0000
0002
0000
0000
,
0000
0000
0000
0000
0000
0003
0200
0000
0000
0000
0000
0000
0000
0300
0020
0000
0000
0000
0000
0000
0000
0030
2002
0000
0000
0000
3003
0000
0220
0000
0000
0330
,
0000
0000
0000
0000
0000
0000
0000
0000
0000
0000
0000
0000
0000
0000
0000
0000
0000
0022
0000
0000
0033
0000
0000
0000
0000
0000
0000
0000
0000
0000
0000
0000
,
0000
0000
0000
0000
0000
0000
0000
2200
0000
0000
3300
0000
0000
0000
0000
0000
0000
0000
0000
0000
0000
0000
0000
0000
0000
0000
0000
0000
0000
2002
0000
0000
,
3003
0000
0000
0000
0000
0000
0000
0000
0000
0000
0000
0000
0000
0000
0000
0000
0000
1220
0000
0000
0000
0330
0000
0000
0000
0000
0000
0000
0000
0000
0000
0000
,
0000
2012
0000
0000
0000
0000
0000
3003
0000
0000
0000
0000
0000
0000
0000
0000
0000
0000
0000
0000
0000
0000
0000
0000
2102
0000
0000
0000
0000
0000
0000
0000
,
0000
0000
0000
0000
0000
0000
0000
0000
0000
0000
0000
0000
0000
0000
0000
0000
0000
0000
0000
0000
0000
0000
0000
3003
0000
0000
0000
0000
0000
0000
0000
0021
,
0000
0000
0000
0000
0030
0000
0000
0000
0000
0000
0000
0210
0000
0000
0000
0000
0000
0000
0300
0000
0000
0000
0000
2100
0000
0000
0000
0000
0000
3000
0000
0000
,
0000
0000
1002
0000
0000
0000
0000
0000
0003
0000
0000
0000
0000
0000
0000
0000
0000
0000
0000
0000
0000
0220
0000
0000
0000
0000
0000
0000
0000
0000
0000
0000
,
0000
0000
0000
0000
,
0000
0000
0000
0000
0330
0000
0000
0000
0000
0000
0000
0000
0000
0000
0002
0000
0000
0010
0000
0000
0103
0000
0000
0000
0000
0000
0000
2000
0000
0000
0100
0000
,
0000
3010
0000
0000
0000
0000
0000
0000
0000
0000
0000
0000
0000
0000
0000
0000
0000
0000
0000
0000
0000
0000
0000
0000
0000
0000
0000
0000
0000
0000
0000
2002
,
0000
0000
0000
0000
0000
3003
2002
0000
0000
0000
0000
0000
3003
0000
0000
0000
0000
0000
0000
0000
0000
0000
0000
0000
0000
0002
0000
0003
0020
0000
0030
0002
,
0000
0003
0000
0000
0000
0000
2000
0000
3000
0200
0000
0300
2000
0000
3000
0000
0000
0000
0000
0000
0000
0000
0000
0000
0000
0000
0000
0220
0000
0330
2002
0000
,
3003
0220
0000
0330
0000
0000
0000
0000
0000
0000
0000
0000
0000
0000
0000
0000
0000
0000
0000
0000
0000
0000
0000
0000
0000
0000
2100
0000
0000
0000
0000
0000
,
0000
0000
0000
0000
0000
0000
0000
0000
0000
3000
0000
0000
0000
0000
0000
0000
0220
0000
0000
0330
0000
0000
0000
0000
0001
0000
0000
0000
0000
0000
0000
0000
,
1000
0000
0000
0000
0000
0000
0000
0220
0000
0000
0000
0000
0000
0000
0000
0000
0330
0000
0000
0000
0000
0000
0000
0000
0000
0000
0000
2002
0000
0000
3003
0000
,
0000
0000
0000
0010
0000
0000
0000
0000
0000
0000
0100
0000
0000
0000
0000
0000
0000
2002
0000
0000
0000
0000
0000
0000
0000
3003
0000
0000
0000
0000
0000
0000
,
0000
0000
0000
0000
0000
0202
0000
0000
0303
0000
0000
0000
0000
0010
0000
0000
0000
0000
0000
0000
0000
1000
0000
0000
0000
0000
0000
0000
0202
0000
0000
0000
,
0000
0000
0000
0000
0303
0000
0000
0000
0000
0000
0000
0000
0000
0000
0000
0000
0000
2020
0000
0000
3030
0000
0000
0000
0001
0000
0000
0000
0000
0000
0000
0100
,
0000
0000
0000
0000
0000
0000
0000
2020
0000
0000
0000
0000
0000
0000
0000
3030
0000
0000
0000
0000
0000
0000
0000
0000
0000
0000
0022
0000
0000
0033
0000
0000
,
0000
0100
0000
0000
0000
0000
0000
0000
1000
0000
0000
0000
0000
0000
0000
0000
0022
0000
0000
0000
0000
0000
0000
0000
0033
0000
0000
0000
0000
0000
0000
0000
,
0000
0000
0000
0000
2200
0000
0000
3300
0000
0000
0000
0000
0001
0000
0000
0000
0000
0000
0000
0000
0010
0000
0000
0000
0000
0000
0000
0000
0000
2200
0000
0000
,
0000
0000
0000
0000
3300
0000
0000
0000
0000
0000
0000
0000
0000
0000
0000
0000
2002
0000
0000
3003
0000
0000
0000
0000
0010
0000
0000
0000
0000
0000
0000
0000
,
0100
0000
0000
0000
0000
0000
0000
0220
0000
0000
0000
0000
0000
0000
0000
0000
0330
0000
0000
0000
0000
0000
0000
0000
0000
0000
0000
0000
2000
0000
0000
0000
,
0000
3000
0000
0200
0000
0000
0000
0000
0300
0000
0000
0020
0000
0000
0000
0030
0000
0000
0000
2002
0000
0000
0000
0000
0000
0000
0000
0000
0000
0000
0000
0000
,
0000
0000
0000
0000
,
0000
0000
0000
0000
0000
0000
0000
0000
0000
0000
0000
0000
0000
0000
0000
0000
0000
0000
0000
0000
0000
0000
0000
0000
0000
0000
0000
0000
0000
0000
0000
0000
0000
0000
0000
0000
0000
0000
0000
0000
0000
0000
0000
0000
0000
0000
0000
0000
3003
0000
0000
0000
0000
0000
0000
0000
0000
0000
0002
0000
0000
0003
0020
0000
,
0000
0030
0002
0000
0000
0000
0000
0003
2000
0000
0000
0000
0000
0000
0000
3000
0200
0000
0000
0000
0000
0300
2000
0000
0000
0000
0000
0000
0000
3000
0020
0000
0000
0030
0000
0000
0001
0000
0000
0000
0000
0000
0000
0000
0100
0000
0000
0000
1000
0000
0000
0000
0000
0000
0000
0000
0010
0000
0000
0000
0100
0000
0000
0000
,
0000
0000
1000
0000
0000
0001
0000
0100
0000
0000
2001
0000
0000
0000
0000
0000
0000
0000
0000
0000
0010
0000
0000
0000
3000
0000
0000
0000
0201
0000
0000
0000
,
0000
1000
0300
0021
0000
0100
0030
0201
,
0300
2010
0000
0100
3000
0201
0000
1000
,
0300
0000
0000
0000
0002
0000
0000
0000
0000
0000
0000
0000
0100
0000
0000
0000
0003
2000
0000
0000
3001
0000
0000
0000
0000
0000
0000
0000
0002
0000
0000
0000
,
0000
0100
0003
2001
0000
0100
3000
0201
,
0000
1000
0300
0021
0030
2002
0000
0000
,
0000
0000
0000
0000
0000
0000
0000
0000
0000
0000
3003
0000
0000
0000
0000
0000
0000
1000
0000
0100
0000
1000
0000
0100
0000
0010
0000
0100
0000
0010
0000
0001
,
0000
0010
0000
0001
0000
1000
0000
0001
0000
1000
0000
0100
0000
0010
0000
0002
0000
0000
0000
0000
0000
0000
0000
0000
0000
0003
0200
0000
0000
0000
0000
0000
,
0000
0000
0000
0000
0000
0000
0000
0000
0300
2002
0000
0000
0000
0000
0000
0000
0000
0000
0000
0000
0000
0000
0000
0000
0000
0000
0000
0000
0000
0000
0000
0000
,
0000
0000
0000
0000
3003
0000
0000
0000
0000
2000
0000
0000
0000
0000
0000
0000
0020
0000
0000
0000
0000
0000
0000
0000
0000
0000
0000
0000
0002
0003
0000
0000
,
0200
0300
0000
0000
0000
0000
0000
3030
0000
0000
0000
0000
0000
0000
0000
0000
2002
0000
0000
0000
0000
0000
3003
0000
0000
0000
0000
0000
0000
0000
0000
0000
,
0000
2200
3300
0000
0000
0022
0000
0000
0000
0033
0000
0000
0000
0000
0000
0000
0220
0000
0000
0000
0000
0000
0000
0000
0330
0000
0000
0000
0000
0000
0000
0000
,
0000
0000
0000
0000
0000
0000
0000
0000
0000
0000
0000
0000
2002
0000
0000
0000
0000
0000
0000
0000
3003
0000
0000
0000
0000
0000
0000
0000
0220
0000
0000
0000
0000
0000
0000
0000
0000
0000
0000
0000
0000
0000
0000
0000
0000
0330
0000
0000
0000
0000
0000
0000
0000
0000
0000
0000
0000
0000
0000
0000
0022
0000
0000
0000
,
0000
0000
0000
0000
0000
0000
0000
0000
0000
0000
0000
0000
0000
0000
0000
0000
0033
0000
0000
0000
0000
0000
0000
0000
2200
0000
0000
0000
0000
0000
0000
0000
0000
0000
0000
0000
0000
0000
0000
0000
0000
0000
0000
0000
0000
0000
0000
0000
3300
0000
0000
0000
0000
0000
0000
0000
0000
0000
0000
0000
0000
0000
0000
0000
0000
0000
0000
0000
0000
0000
0000
0000
0000
0000
0000
0000
0000
0000
0000
0000
0000
0000
0000
0000
0000
0000
0000
0000
0000
0000
0000
0000
0000
0000
0000
0000
0000
0000
0000
0000
0000
0000
0000
0000
0000
0000
0000
0000
0000
0000
0000
0000
0000
0000
2020
0000
0000
0000
0000
0000
0000
0000
0000
0000
0000
0000
0000
0000
0000
0000
0000
0000
0000
0000
0000
0000
0000
0000
0000
0000
0000
0000
0000
0000
0000
0000
0000
0000
0000
0000
0000
0000
0000
0000
0000
0000
0000
0000
0000
0000
0000
0000
0000
0000
0000
0000
0000
0000
0000
0000
0000
0000
0000
0000
0000
0000
0000
0000
0000
0000
0000
0000
0000
0000
0000
0000
0000
0000
0000
0000
0000
0000
,
3030
0000
0000
0202
0000
0000
0000
0000
0000
0000
0303
0000
0000
2002
0000
0000
0000
0000
0000
3003
0000
0220
0000
0000
0000
0330
0000
2101
0000
0000
0000
0000
,
3000
0000
0000
0000
1210
0000
0000
0000
0000
0000
0000
0000
0300
0000
0000
0000
0000
0000
0222
0000
0000
0000
0000
0000
0000
0333
0000
0000
0000
0000
0000
0000
,
0000
0000
0000
0000
0000
0000
0000
0000
0000
0000
0000
0000
0000
0000
0000
0001
0000
0000
0100
0000
0000
0001
0000
0000
0100
0000
0000
0001
0000
0000
0100
0000
,
0000
0001
0000
0000
0100
0000
0000
1000
0000
0000
0100
0000
0000
1000
0000
0000
0100
0000
0000
1000
0000
0000
0100
0000
0000
1000
0000
0000
0100
0000
0000
0010
,
0000
0000
0100
0000
0000
0010
0000
0000
0100
0000
0000
0010
0000
0000
0100
0000
0000
0010
0000
0000
0100
0000
0000
1000
0000
0000
0010
0000
0000
1000
0000
0000
,
0010
0000
0000
1000
0000
0000
0010
0000
0000
1000
0000
0000
0010
0000
0000
0001
0000
0000
0100
0000
0000
0001
0000
0000
0100
0000
0000
0001
0000
0000
0100
0000
,
0000
0001
0000
0000
2020
0000
0000
0000
3030
0000
0000
0000
0000
0000
0000
0000
0000
0000
0001
0000
0000
0000
0000
0000
0010
0000
0000
0000
0000
0000
0000
2200
,
0000
0000
0000
3300
0000
0000
0000
0000
0000
0000
0000
0000
1000
0000
0000
0000
0000
0000
0000
0100
0000
0000
0000
0000
0000
0010
0000
0000
0000
0000
0000
0000
,
0001
0000
0000
0000
0000
0010
0000
0000
0000
0000
0000
0100
0000
0000
0000
0000
0000
0000
1100
0000
0000
0001
0000
0000
0010
0000
0000
0100
0000
0000
1000
0000
,
0000
0001
0000
0000
0010
0000
0000
1100
0000
0000
0000
0000
0012
0000
0000
0000
0000
0000
0000
0000
0000
0000
0000
0000
0003
0210
0000
0000
0000
0000
0000
0000
,
0000
0000
0000
0000
0000
0000
0000
0000
0300
1020
0000
0000
0000
0000
0000
0000
0000
0030
2100
0000
0000
0000
0000
0000
0000
0000
3000
0012
0000
0000
0000
0000
,
0000
0000
0000
0000
0000
0000
0000
0000
0000
0003
1200
0000
0000
0000
0000
0000
0000
0000
0000
0300
0120
0000
0000
0000
0000
0000
0000
0030
2002
0000
3003
0000
,
0000
0000
0000
0000
0000
0000
0000
0000
0002
0000
0000
0000
0000
0000
0003
2000
0000
0000
0000
0000
0000
0000
0000
3000
0220
0000
0330
0000
0000
0000
0000
0000
,
0000
0000
0000
0022
0000
0033
0000
0000
0000
0000
0000
2020
0000
3030
0000
0000
,
0000
0000
0000
0000
0000
0000
0000
0000
0220
0000
0330
0000
0000
0000
0000
0202
0000
0000
0303
0000
0000
0000
0000
0000
2002
0000
0000
0000
0000
0000
3003
0000
,
0000
0000
0000
0000
0000
0000
0000
0000
2020
0000
0000
3030
0000
0000
0000
0000
0220
0000
0000
0330
0000
0000
0000
0000
0202
0000
0303
0000
0000
0000
0000
0000
,
0000
0000
0000
0000
0020
0000
0000
0000
0000
0000
0030
0000
0200
0000
0000
0000
0000
0300
0000
0000
2002
0000
3003
0000
0000
0000
0000
0000
0000
0000
0000
0000
,
0000
0002
0000
0000
0000
0020
0000
0000
0033
0000
0000
0000
0000
0000
2200
3300
0000
0000
0000
0000
0000
0000
0000
0000
0000
0000
0000
0000
0000
0000
0000
0000
,
0000
0000
0000
0000
0000
0000
0000
0000
2002
0000
3003
0000
0000
0000
0000
0000
0000
0020
0000
0000
0000
0000
0000
0000
0000
0000
0031
0000
0000
0000
0000
0000
,
0000
0000
0000
2000
0000
0000
0000
0000
0000
0000
0000
0000
0000
3100
0000
0000
0000
0000
0000
0000
0000
0002
0000
0000
0000
0000
0000
0000
0000
0000
0103
0000
,
0000
0000
0000
2000
0000
0000
0000
0000
0000
0000
0000
0000
3001
0000
0000
0000
,
0000
0012
0000
0000
0000
0000
0003
0000
0000
0000
2200
0000
0000
3300
0000
0000
0220
0000
0330
0000
0022
0000
0033
0000
0000
0000
0000
0000
0000
0000
0000
0000
,
0000
0000
0000
0000
0000
0000
0000
0000
0000
0000
0000
0000
0000
1200
0000
0000
0000
0000
0000
0000
0000
0000
0310
0000
0000
0000
0000
0000
0000
0000
2001
0000
,
0000
0000
0000
0000
0000
0000
0000
0000
3100
0000
0000
0000
0000
0000
0000
0000
1020
0000
0000
0000
0000
0000
0000
0000
0000
0031
0000
0000
0000
0000
0000
0000
,
0000
0000
1020
0000
0000
0000
0000
0000
0000
0132
0000
0000
0000
0000
0000
0000
0000
0000
0000
0000
0000
0000
0000
0003
0000
0000
0000
0000
0000
2100
0000
0000
,
0000
0000
0000
0000
3120
0000
0000
0000
0000
0000
0030
0000
0000
0000
0000
0101
0000
0000
0000
0000
0000
0000
0010
0000
0000
0000
0000
0000
0000
0000
0100
0000
,
0000
0000
0000
0000
0000
0000
0001
0000
0000
0000
0000
0000
0000
0000
0000
1000
0000
0000
0000
0010
0000
0000
0000
0000
0000
0202
0000
0000
0303
0000
0000
0000
,
0000
0000
0000
0000
0200
0000
0000
0000
2300
0000
0000
0000
3000
0220
0000
0000
0330
0000
0000
0000
0000
0000
0000
0000
0011
0000
0000
0000
0000
0000
0000
0000
,
0000
1100
0000
0000
0000
0000
0000
0000
0000
0000
0000
0000
0101
0000
0000
0000
0000
0000
0000
0000
0000
1010
0000
0000
0000
0000
0000
0000
0000
0000
0000
0202
,
0000
0303
0000
0000
2020
0000
3030
0000
2002
0000
0000
3003
0000
0000
0000
0000
0000
2000
0000
3000
0002
0000
0000
0000
0003
2000
0000
0000
3000
0220
0000
0000
,
0330
0000
0000
0000
0000
0000
0000
0000
0000
0000
0000
0000
0000
0000
2002
0000
0000
0000
0000
3003
0000
0000
0000
0000
0022
0000
0000
0000
0000
0033
0000
0000
,
0000
0000
2200
0000
0000
0000
0000
0000
0000
3300
0000
0000
0000
0000
0000
0000
0000
0000
0000
0000
0000
0000
0000
0000
0000
0000
0000
0000
0000
0000
0000
0000
,
0000
0000
0002
0000
0000
0000
0003
0000
0000
0000
0000
0000
0200
0000
0300
0000
0000
0020
0000
0030
0000
0000
2002
0000
3003
0000
0000
0000
0000
0000
0000
0000
,
0000
0000
0000
0000
,
0000
0000
0000
0000
,
0000
0000
0000
0002
0000
0000
0000
0000
0000
0000
0000
0000
0000
0000
0000
0023
0000
0000
0000
0000
0000
0000
0000
0000
0000
2030
0000
0000
0000
0000
0000
0000
,
3000
0000
0000
0000
0000
0000
0000
0000
0000
0000
0000
0001
0000
0010
0000
0100
0000
2002
0000
0000
0000
0000
0000
0000
0000
0000
0000
0000
0000
0000
0000
0000
,
3003
0000
0000
0000
0000
0000
0000
0000
0000
0000
0000
0000
0000
0000
0000
0000
0000
0000
0000
0000
0000
0000
0000
0000
0000
0000
0000
0000
0000
0000
0000
0000
0000
0000
0000
0000
0000
0000
0000
0000
0000
0000
0000
0000
0000
0000
0000
0000
0000
0000
0000
0000
0000
0000
0000
0000
0000
0000
0000
0000
0011
0000
0000
0000
0000
0000
0000
0000
0000
0000
0000
0000
0000
0000
0000
0000
0000
0000
0000
0000
0000
0000
0000
0000
0000
0000
0000
0000
0000
0000
0000
0000
0100
0000
0000
0000
0000
0000
0000
0000
0000
0000
0000
0000
0000
0000
0000
0000
0000
0000
0000
0000
0000
0000
0000
0000
0000
0000
0000
0000
0000
0000
0000
0000
0000
0000
0001
0000
0000
0000
0000
0000
0000
0000
0000
0000
0000
0000
0000
0000
0000
0000
0000
0000
0000
0000
0000
0000
0000
0000
0000
0000
0000
0000
0000
0000
1100
0000
0000
0000
0000
0000
0000
0000
0000
0000
0000
0000
0000
0000
0000
0000
0000
0000
0000
0000
0000
0000
0000
0000
0000
0000
0000
0000
0000
0000
0000
0000
0000
0010
0000
0000
,
0000
0000
0000
0000
0000
0000
0000
0000
0000
0000
1000
0000
0000
0000
0000
0000
0000
0000
0000
0000
0110
0000
0000
0000
0000
0000
0000
0000
0000
0000
0000
1000
0000
0000
0000
0000
0000
0000
0000
0100
0000
0000
0000
0000
0000
0000
0000
0000
0011
0000
0000
0000
0000
0000
0000
0000
0000
0000
0000
1000
0000
0000
0000
0000
,
0000
0000
0000
0000
0000
0010
0000
0000
0000
0000
0000
0000
0000
0000
0000
0000
1100
0000
0000
0000
0000
0000
0000
0000
0000
0000
0010
0000
0000
0000
0000
0000
0000
0000
0000
0001
0000
0000
0000
0000
0000
0000
0000
0000
0110
0000
0000
0000
0000
0000
0000
0000
0000
0000
0000
1000
0000
0000
0000
0000
0000
0000
0000
0000
,
0000
0000
0100
0000
0000
0000
0000
0000
0000
0000
0000
0000
0011
0000
0000
0000
0000
0000
0000
0000
0000
0000
0000
0100
0000
0000
0000
0000
0000
0000
0000
0000
0000
0000
0001
0000
0000
0000
0000
0000
0000
0000
0000
0000
1100
0000
0000
0000
0000
0000
0000
0000
0000
0000
0010
0000
0000
0000
0000
0000
0000
0000
0000
0000
,
0000
0001
0000
0000
0000
0000
0000
0000
0000
0000
0000
0000
0110
0000
0000
0000
0000
0000
0000
0000
0000
0000
0001
0000
0000
0000
0000
0000
0000
0000
0000
0000
0000
1000
0000
0000
0000
0000
0000
0000
0000
0000
0000
0000
0011
0000
0000
0000
0000
0000
0000
0000
0000
0100
0000
0000
0000
0000
0000
0000
0000
0000
0001
0000
,
0000
0000
0000
0000
0000
0000
0000
0000
1100
0000
0000
0000
0000
0000
0000
0000
0000
0000
0000
0010
0000
0000
0000
0000
0000
0000
0000
0000
0000
0100
0000
0000
0000
0000
0000
0000
0000
0000
0000
0000
0011
0000
0000
0000
0000
0000
0000
0000
0000
0100
0000
0000
0000
0000
0000
0000
0000
0000
0001
0000
0000
0000
0000
0000
,
0000
0000
0000
0000
1100
0000
0000
0000
0000
0000
0000
0000
0000
0000
0000
0010
0000
0000
0000
0000
0000
0000
0000
0000
0000
0100
0000
0000
0000
0000
0000
0000
0000
0000
0000
0000
0011
0000
0000
0000
0000
0000
0000
0000
0000
0100
0000
0000
0000
0000
0000
0000
0000
0000
0001
0000
0000
0000
0000
0000
0000
0000
0000
0000
,
0110
0000
0000
0000
0000
0000
0000
0000
0000
0000
0000
0000
0001
0000
0000
0000
0000
0000
0000
0000
0000
0000
0000
0000
0010
0000
0000
0000
0000
0000
0000
0000
0000
0000
0000
0000
1100
0000
0000
0000
0000
0000
0000
0000
0000
0001
0000
0000
0000
0000
0000
0000
0000
0000
0100
0000
0000
0000
0000
0000
0000
0000
0000
0000
,
0011
0000
0000
0000
0000
0000
0000
0000
0000
0000
0000
0100
0000
0000
0000
0000
0000
0000
0000
0000
0000
0001
0000
0000
0000
0000
0000
0000
0000
0000
0000
0000
1100
0000
0000
0000
0000
0000
0000
0000
0000
0000
0000
0010
0000
0000
0000
0000
0000
0000
0000
0000
0000
0100
0000
0000
0000
0000
0000
0000
0000
0000
0000
0000
,
0011
0000
0000
0000
0000
0000
0000
0000
0000
0000
0100
0000
0000
0000
0000
0000
0000
0000
0000
0000
0000
0001
0000
0000
0000
0000
0000
0000
0000
0000
0000
0000
0110
0000
0000
0000
0000
0000
0000
0000
0000
0000
0000
1000
0000
0000
0000
0000
0000
0000
0000
0000
0000
0000
0001
0000
0000
0000
0000
0000
0000
0000
0000
0000
,
1100
0000
0000
0000
0000
0000
0000
0000
0000
0000
0010
0000
0000
0000
0000
0000
0000
0000
0000
0001
0000
0000
0000
0000
0000
0000
0000
0000
0110
0000
0000
0000
0000
0000
0000
0000
0000
0000
0001
0000
0000
0000
0000
0000
0000
0000
0000
0000
0000
0010
0000
0000
0000
0000
0000
0000
0000
0000
0000
0000
1100
0000
0000
0000
,
0000
0000
0000
0000
0000
0000
0010
0000
0000
0000
0000
0000
0000
0000
0000
0100
0000
0000
0000
0000
0000
0000
0000
0000
0011
0000
0000
0000
0000
0000
0000
0000
0000
0100
0000
0000
0000
0000
0000
0000
0000
0000
1000
0000
0000
0000
0000
0000
0000
0000
0000
0000
0110
0000
0000
0000
0000
0000
0000
0000
0000
0000
0001
0000
,
0000
0000
0000
0000
0000
0000
0000
0000
0000
1000
0000
0000
0000
0000
0000
0000
0000
0000
0000
0000
0011
0000
0000
0000
0000
0000
0000
0000
0000
0000
0100
0000
0000
0000
0000
0000
0000
0000
0000
0000
0000
1000
0000
0000
0000
0000
0000
0000
0000
0000
0000
0000
0011
0000
0000
0000
0000
0000
0000
0000
0000
0000
0000
0100
,
0000
0000
0000
0000
0000
0000
0000
0000
0000
0000
0001
0000
0000
0000
0000
0000
0000
0000
0000
0000
1100
0000
0000
0000
0000
0000
0000
0000
0000
0000
0010
0000
0000
0000
0000
0000
0000
0000
0000
0000
0000
0001
0000
0000
0000
0000
0000
0000
0000
0000
0000
0000
1100
0000
0000
0000
0000
0000
0000
0000
0000
0000
0000
0010
,
0000
0000
0000
0000
0000
0000
0000
0000
0000
1000
0000
0000
0000
0000
0000
0000
0000
0000
0000
0000
0110
0000
0000
0000
0000
0000
0000
0000
0000
0001
0000
0000
0000
0000
0000
0000
0000
0000
1000
0000
0000
0000
0000
0000
0000
0000
0000
0000
0011
0000
0000
0000
0000
0000
0000
0000
0000
0000
0100
0000
0000
0000
0000
0000
,
0000
0000
1000
0000
0000
0000
0000
0100
0000
0000
0000
0000
0010
0000
0000
0000
0000
0001
0000
0000
0000
0000
0010
0000
0000
0000
0000
1200
0000
0000
0000
0000
,
0000
0300
0000
0000
0000
0000
0000
0000
0000
0000
0000
0000
0000
0000
0000
0020
0000
0000
0000
0000
0000
0000
0000
0000
0030
0000
0000
0000
0000
0000
0000
0000
,
0000
0000
0000
0000
0000
0000
0002
0000
0000
0000
0000
0000
0000
0003
0000
0000
0000
0020
0000
0000
0000
0000
0000
0030
0000
0000
0000
0000
0210
0000
0000
0000
,
0000
0000
0000
0000
0000
0300
0000
0000
0000
0000
0000
0000
0000
0000
0000
0000
0000
0000
2002
0000
0000
0000
3003
0000
0000
0000
0000
0000
0000
2002
0000
0000
,
0000
3003
0000
0000
0000
0000
0000
0000
0220
0000
0330
0000
0000
0000
0000
0000
0000
0000
0000
0000
0000
0000
0000
0000
0000
0220
0000
0000
0000
0330
0000
0000
,
0000
0000
0000
0000
0220
0000
0000
0000
0000
0330
0000
0000
0000
0000
0000
2002
0000
0000
3003
0000
0000
0000
0000
0000
0000
0000
0000
0000
0000
0000
0000
0000
,
0000
0002
0000
0000
0000
0003
0000
0000
0000
0000
0000
0020
0000
0000
0000
0030
,
0000
0000
0000
0000
0000
0000
0000
0000
0000
0000
0200
0000
0000
0000
0000
0000
0300
0000
0000
0000
0020
0000
0000
0000
0000
0000
0000
0030
0000
0000
0000
0000
,
0000
2001
0000
0000
0000
0000
0000
0000
0000
0000
0000
3000
0000
0000
0000
0000
0000
0000
0000
0000
0000
0000
0000
0000
0022
0000
0000
0000
0000
0033
0000
0000
,
0000
0000
2200
0000
0000
0000
3300
0000
0000
0000
0000
0000
0000
0202
0000
0000
0303
0000
0000
0000
0000
0000
0000
0000
0000
0000
0000
0000
0000
0000
0000
2020
,
0000
0000
0000
0000
0000
0000
3030
0000
0000
0000
0000
0202
0000
0000
0000
0000
0000
0303
0000
0000
0000
0022
0000
0000
0033
0000
0000
0000
0000
0000
0000
0000
,
0000
0000
0000
0000
0000
0000
0202
0000
0303
2020
0000
0000
3030
2002
0000
3003
0000
0000
0000
0000
0000
0000
0000
0000
0000
0000
0000
0000
0000
0000
0000
0010
,
0000
0000
0000
0000
0000
0000
0000
0000
0000
0000
0000
0000
0000
0000
0000
0001
0000
0000
0000
0000
0000
0000
0000
0000
0000
0000
0000
0000
0000
0000
0000
0000
,
0000
0100
0000
0000
0000
0000
0000
0000
0000
0000
0000
0000
0000
0000
0000
0000
0000
0000
0000
1000
0000
0000
0000
0000
0000
0000
0000
0000
0000
0000
0000
0000
,
0000
0000
0000
0010
0000
0000
0000
0000
0000
0000
0000
0000
0000
0000
0000
0000
0000
1000
0000
0100
0000
0010
0000
0001
0000
0010
0000
0100
0000
1000
0000
0000
,
0022
0000
0033
0000
0000
0220
0000
0330
0000
0000
0000
0000
2200
0000
3300
0000
0000
0000
0000
0000
0000
0000
0000
0000
0000
0000
0000
0000
0000
1001
0000
0000
,
0000
0000
0011
0000
,
0000
1100
0000
0000
0000
0000
0000
0000
0000
0000
0000
0000
0000
0000
0000
0000
0000
0000
0110
0000
0000
0000
0000
0000
0000
0000
0000
0000
0000
0000
0000
0000
,
0000
0000
0000
0101
0000
0000
0000
0000
0000
0000
0000
0000
0000
0000
0000
0000
0000
0000
1010
0000
0000
0000
0000
0000
0000
0012
0000
0000
0000
0000
0000
0000
,
0000
0000
0000
0000
0000
0000
0000
2103
0000
0000
0000
0000
0000
0000
0000
0000
0000
0000
0000
0000
3210
0000
0000
0000
0000
0000
2310
0000
0000
0000
0000
0000
,
3022
0000
0033
0000
,
0000
0022
0033
0000
0000
0000
0000
0000
0000
0000
0000
0000
0000
0000
0000
0000
0210
0000
0000
0000
0000
0000
0000
0000
0000
0000
0000
0000
0010
0000
0000
0000
,
0000
0000
0000
0000
0000
0000
0000
0000
0010
0000
0000
0000
0000
0000
0000
0000
0000
0000
0000
0000
0010
0000
0000
0000
2002
3003
0000
0000
0300
0000
0000
0000
,
0000
0000
0000
0011
0000
0000
0000
0000
0000
0000
0000
0000
0000
0000
0001
0000
0000
0000
0010
0000
0000
0000
1100
0000
0000
0000
0000
0000
0000
0000
0000
0000
,
0000
0100
0000
0010
0000
1100
0000
0000
0000
0000
0000
0001
0000
0010
0000
1100
,
0000
0000
0000
0000
0000
0001
0000
0010
0000
1010
0000
0000
0000
0000
0000
0010
,
0000
0000
0100
0000
0000
0000
0101
0000
0000
0000
0000
0000
0000
0000
0000
0000
0000
0000
0000
0010
0000
0000
0000
0100
0000
0000
0000
1010
0000
0000
0000
0000
,
0000
0000
0000
0000
0000
0000
0000
0000
0001
0000
0000
0000
0100
0000
0000
0000
1100
0000
0000
0000
0000
0000
0000
0000
0000
0000
0000
0010
0000
0000
0000
0100
,
0000
0000
0000
0011
0000
0000
0000
0000
0000
0000
0000
0000
0000
0000
0000
0000
0010
0000
0000
0000
0100
0000
0000
0000
0110
0000
0000
0000
0000
0000
0000
0000
,
0000
0001
0010
1100
0000
0000
0010
0100
,
1010
0000
0000
0000
0000
0000
0000
0001
0000
0010
0000
0101
0000
0000
0000
0000
,
0000
0000
0001
0000
0000
0000
0010
0000
0000
0000
1100
0000
0000
0000
0000
0000
0000
0000
0000
0000
0000
0000
0000
0001
0000
0000
0000
1000
0000
0000
0000
0110
,
0000
0000
0000
0000
0000
0001
0000
0100
0000
0011
0000
0000
0000
0000
0000
0000
,
0010
0100
1010
0000
0000
0001
0100
1100
,
0000
0000
0000
0000
0000
0000
0000
0000
0000
0000
0000
0010
0000
0000
0000
0100
0000
0000
0000
0011
0000
0000
0000
0000
0000
0000
0000
0000
0000
0001
0000
0000
,
0000
0100
0000
0000
0000
1010
0000
0000
0000
0000
0000
0000
0000
0000
0000
0000
0000
0000
0000
0001
0000
0000
0000
0010
0000
0000
0000
1100
0000
0000
0000
0000
,
0000
0000
0000
0000
0000
0000
0000
0001
0000
0000
0000
0100
0000
0000
0000
0011
0000
0000
0000
0000
0000
0000
0000
0000
0000
0000
0000
0001
0000
0000
0000
0100
,
0000
0000
0000
1010
0000
0000
0000
0000
0000
0000
0000
0000
0000
0000
0000
0010
0000
0000
0000
0100
0000
0000
0000
0110
0000
0000
0000
0000
0000
0000
0000
0000
,
0000
0000
0000
0001
0000
0000
0000
0010
0000
0000
0000
1100
0000
0000
0000
0000
0000
0000
0000
0000
0000
0000
0000
0001
0000
0000
0000
0010
0000
0000
0000
1001
,
0000
0000
0000
0000
0000
0000
0000
0000
0000
0000
0000
0000
0000
0001
0000
0000
0000
0100
0000
0000
0000
0000
0000
0011
0000
0000
0000
0000
0000
0000
0000
0000
,
0000
0010
0000
0000
0000
0000
0000
0001
0000
0000
0000
1010
0000
0000
0000
0000
0000
0000
0000
0000
0000
0001
0000
0000
0000
0100
0000
0000
0000
1001
0000
0000
,
0000
0000
0000
0000
0000
0000
0000
0000
0000
0000
0000
0000
0000
0000
0000
0000
0120
0000
0000
0000
0000
0000
0030
0000
0000
0002
0000
0000
0000
0000
0003
0000
,
0200
0000
0000
0300
0000
0000
2000
0000
0000
0000
3000
0002
0000
0000
0003
0000
0000
0020
0000
0000
0030
0000
0000
0200
0000
0000
0300
0000
2002
0000
0000
0000
,
0000
0010
0000
0000
0000
0000
0000
0000
0000
0000
0000
0000
0010
0000
0000
0000
,
0000
0000
0000
0000
0000
0000
0000
3003
0000
0000
0000
0000
0000
0000
0000
2010
0000
0000
0000
3000
0000
0200
0000
0000
0000
0300
2000
0000
0000
3000
0000
0220
,
0000
0000
0000
0000
0000
0000
0000
0000
0000
0000
0000
0000
0000
0000
0000
0330
0000
0000
0000
0000
0000
1010
0000
0200
0000
0300
0002
0000
0003
2000
0000
3000
,
0002
0000
0003
2020
0000
0000
0000
0202
0303
0000
0000
0000
0100
0000
0000
0000
0202
0303
0000
0000
0000
0001
0000
0000
0000
0202
0303
0000
0000
0000
0100
0000
,
0000
0000
0202
0303
0000
0000
3030
0001
0000
0000
0000
0000
0000
0010
0000
0000
0000
0000
0000
0000
0000
0202
0000
0000
0000
0000
0303
0000
0000
1000
0000
0000
,
0000
0000
0000
0000
0000
0000
0000
0220
0000
0000
0000
0000
0000
0000
0000
0330
0000
0000
0000
0000
0001
0000
0000
0000
0000
0000
0000
0000
0000
0000
0000
0000
,
0000
0000
2002
0000
0000
0000
0000
0000
0000
0000
0000
0000
0000
0000
0000
3003
0000
0000
0000
0000
0010
0000
0000
0000
0000
0000
0000
0000
0000
0000
0000
0000
,
0220
0000
0000
0000
0000
0000
0000
0000
0000
0000
0000
0000
0000
0000
0330
0000
0000
0000
0000
0000
0000
0001
0000
0000
0000
0000
0000
0000
0000
0000
0000
0000
,
0000
0000
0000
0000
0000
0000
0000
0000
0000
2200
0000
0000
0000
0000
0000
0000
0000
0000
0000
0000
0000
3300
0000
0000
0000
0000
0000
0010
0000
0000
0000
0000
,
0000
0000
0000
0000
0000
0000
0000
0000
0000
0000
0000
0000
0000
0022
0000
0000
0000
0000
0000
0000
0000
0000
0000
0000
0033
0000
0000
0000
0000
0100
0000
0000
,
0000
0000
0000
0000
0000
0000
0000
0000
0202
0000
0000
0000
0303
0000
0000
0010
,
0000
0000
0000
0000
0000
0000
0000
0000
0000
0000
0000
0000
0000
0000
0000
2020
0000
0000
0000
0000
0000
0000
0000
0000
0000
3030
0000
0000
0000
0000
0001
0000
,
0000
0000
0000
0000
0000
0000
0000
0000
0000
0000
0000
0000
0000
0000
0000
0000
0000
0000
2002
0000
0000
0000
0000
0000
0000
0000
0000
0000
0000
0000
0000
3003
,
0000
0000
0000
0000
0010
0000
0000
0000
0000
0000
0000
0000
0000
0000
0000
0000
0000
0000
0000
0000
0000
0000
0000
0220
0000
0000
0000
0000
0000
0000
0000
0000
,
0000
0000
0000
0330
0000
0000
0000
0000
0000
0001
0000
0000
0000
0000
0000
0000
0000
0000
0000
0000
0000
0000
0000
0000
0000
0000
0000
0000
0000
0000
0000
0202
,
0000
0000
0000
0000
0000
0000
0000
0000
0000
0000
0000
0303
0000
0000
0000
0000
0000
0000
0010
0000
0000
0000
0000
0000
0000
0000
0000
0000
0000
0000
0000
0000
,
0000
0000
0000
0000
2020
0000
0000
0000
0000
0000
0000
0000
0000
0000
0000
0000
0000
3030
0000
0000
0000
0000
0000
0001
0000
0000
0000
0000
0000
0000
0000
0000
,
0000
0000
0000
0000
0000
0000
0000
0000
0000
0000
0000
0022
0000
0000
0000
0000
0000
0000
0000
0000
0000
0000
0000
0033
0000
0000
0000
0000
0000
0100
0000
0000
,
0000
0000
0000
0000
0000
0000
0000
0000
0000
0000
0000
0000
0000
0000
0000
0000
0000
2200
0000
0000
0000
0000
0000
0000
0000
0000
0000
0000
0000
0000
3300
0000
,
0000
0000
0000
0000
0001
0000
0000
0000
0000
0000
0000
0000
0000
0000
0000
0000
0000
0000
0000
0000
0000
0000
0000
0000
0000
1000
0000
0000
0000
0100
0000
0000
,
0000
0001
0000
0000
0000
0010
0000
0000
0000
0100
0000
0000
0000
0001
0000
0000
0000
1000
0000
0000
0000
0010
0000
0000
0000
0100
0000
0000
0000
0001
0000
0000
,
0000
0010
0000
0000
0000
1000
0000
0000
0000
0010
0000
0000
0000
0100
0000
0000
0000
0001
0000
0000
0000
1000
0000
0000
0000
0010
0000
0000
0100
0000
0000
0001
,
0000
0000
1000
0101
0000
0000
0000
0000
0000
2200
0000
3300
0000
0000
0000
0022
0000
0033
0000
0000
0000
0000
2002
0000
3003
0000
0000
0220
0000
0000
0000
0000
,
0330
0000
0000
0000
0000
0000
2000
0000
0000
3000
0000
0020
0000
0030
0000
0000
0200
0000
0000
0300
0000
0020
0000
0000
0030
0000
0002
0000
0000
0003
0020
0000
,
0000
0030
0000
2002
0000
3003
0000
0000
0000
0000
0000
0000
0000
0020
0000
0000
0000
0000
0030
0000
0000
0000
0000
0002
0000
0000
0003
0000
0000
0000
0110
0000
,
0000
0000
0000
0000
0000
0101
0000
0000
0000
0000
0022
0000
0000
0033
0000
0000
0000
0000
0000
0000
0000
0000
0000
0000
0000
0000
0000
0000
0000
0002
0003
0020
,
0030
0000
0000
0200
0300
0000
0000
2000
3000
0000
0000
0020
0030
0000
0000
0002
0003
0000
0000
0200
0300
0000
0000
2000
3000
0000
0000
0200
0300
0000
0000
0002
,
0003
0000
0000
0200
0300
0000
0000
2000
3000
0000
0000
0200
0300
0000
0000
0020
0030
0000
0000
2000
3000
0000
0000
0020
0030
0000
0000
0200
0300
0000
0000
0002
,
0003
0000
0000
0200
0300
0000
0000
2000
3000
0000
0000
0020
0030
0000
0000
0000
0000
2000
3000
0000
0000
0020
0030
0000
0000
0002
0003
0000
0000
2000
3000
0000
,
0000
0200
0300
0000
0000
0002
0003
0000
0000
0200
0300
0000
0000
0002
0003
0000
0000
0020
0030
0000
0000
0000
0000
0000
0000
0002
0003
0000
0000
0020
0030
0000
,
0000
0000
0000
2000
3000
0000
0000
0020
0030
0000
0000
0200
0300
0000
0000
0000
0000
1001
0000
0000
0000
0010
0000
0000
0000
1000
0000
0000
0000
0000
0000
0100
,
0000
0000
0000
0000
0000
0010
0000
0000
0000
0000
0000
1000
0000
0000
0000
0000
0000
0001
0000
0000
0000
0000
0000
0010
0000
0000
0000
0000
0000
1000
0000
0000
,
0000
0000
0000
0010
0000
0000
0000
0000
0000
0100
0000
0000
0000
0000
0000
0001
0000
0000
0000
0000
0000
0010
0000
0000
0000
0000
0000
0010
0000
0000
0000
0000
,
0000
1000
0000
0000
0000
0000
0000
0010
0000
0000
0000
0000
0000
1000
0000
0000
0000
0000
0000
0010
0000
0000
0000
0000
0000
0001
0000
0000
0000
0000
0000
0010
,
0000
0000
0000
0000
0000
0100
0000
0000
0000
0000
0000
1000
0000
0000
0000
0000
0000
0010
0000
0000
0000
0000
0000
1000
0000
0000
0000
0201
0000
0000
0000
0000
,
0000
1000
0000
0000
0000
0000
0000
0310
0000
0000
0000
0000
0000
0100
0000
0000
0000
0000
0000
0010
0000
0000
0000
0000
0000
0100
0000
0000
0000
0000
0000
1002
,
0000
0000
0000
0000
0000
0100
0000
0000
0000
0000
0000
0013
0000
0000
0000
0000
0000
0100
0000
0000
0000
0000
0000
0001
0000
0000
0000
0000
0000
1000
0000
0000
,
0000
0000
0000
0100
0000
0000
0000
0000
0000
0010
0000
0000
0000
0000
0000
1000
0000
0000
0000
0000
0000
0001
0000
0000
0000
0000
0000
0010
0000
0000
0000
0000
,
0000
1000
0000
0000
0000
0000
0000
0100
0000
0000
0000
0000
0000
1000
0000
0000
0000
0000
0000
0010
0000
0000
0000
0000
0000
0001
0000
0000
0000
0000
0000
0010
,
0000
0000
0000
0000
0000
0001
0000
0000
0000
0000
0000
1000
0000
0000
0000
0000
0000
0010
0000
0000
0000
0000
0000
1000
0000
0000
0000
0000
0000
0100
0000
0000
,
0000
0000
0000
0010
0000
0000
0000
0000
0000
1000
0000
0000
0000
0000
0000
0001
0000
0000
0000
0000
0000
1000
0000
0000
0000
0000
0000
0010
0000
0000
0000
0000
,
0000
1000
0000
0000
0000
0000
0000
0100
0000
0000
0000
0000
0000
0001
0000
0000
0000
0000
0000
0010
0000
0000
0000
0000
0000
0001
0000
0000
0000
0000
0000
0010
,
0000
0000
0000
0000
0000
0100
0000
0000
0000
0000
0000
1000
0000
0000
0000
0000
0000
0100
0000
0000
0000
0000
0000
0010
0000
0000
0000
0000
0000
0001
0000
0000
,
0000
0000
0000
0010
0000
0000
0000
0000
0000
1000
0000
0000
0000
0000
0000
0100
0000
0000
0000
0000
0000
1000
0000
0000
0000
0000
0000
0010
0000
0000
0000
0000
,
0000
0001
0000
0000
0000
0000
0000
1000
0000
0000
0000
0000
0000
0010
0000
0000
0000
0000
0000
0100
0000
0000
0000
0000
0000
1000
0000
0000
0000
0000
0000
0001
,
0000
0000
0000
0000
0000
0010
0000
0000
0000
0000
0000
0001
0000
0000
0000
0000
0000
0010
0000
0000
0000
0000
0000
1000
0000
0000
0000
0000
0000
0100
0000
0000
,
0000
0000
0000
1000
0000
0000
0000
0000
0000
0001
0000
0000
0000
0000
0000
1000
0000
0000
0000
0000
0000
0001
0000
0000
0000
0000
0000
0100
0000
0000
0000
0000
,
0000
1020
0000
0000
0000
0000
0000
0001
0000
0000
0000
0000
0000
0130
0000
0000
0000
0000
0000
0001
0000
0000
0000
0000
0000
0010
0000
0000
0000
0000
0000
1000
,
0000
0000
0000
0000
0000
0201
0000
0000
0000
0000
0000
0010
0000
0000
0000
0000
0000
0301
0000
0000
0000
0000
0000
0100
0000
0000
0000
0000
0000
0010
0000
0000
,
0000
0000
0000
1000
0000
0000
0000
0000
0000
0001
0000
0000
0000
0000
0000
0100
0000
0000
0000
0000
0000
0010
0000
0000
0000
0000
0000
0100
0000
0000
0000
0000
,
0000
1000
0000
0000
0000
0000
0000
0001
0000
0000
0000
0000
0000
0010
0000
0000
0000
0000
0000
0100
0000
0000
0000
0000
0000
0010
0000
0000
0000
0000
0000
0001
,
0000
0000
0000
0000
0000
0100
0000
0000
0000
0000
0000
0010
0000
0000
0000
0000
0000
0001
0000
0000
0000
0000
0000
1000
0000
0000
0000
0000
0000
0001
0000
0000
,
0000
0000
0000
1000
0000
0000
0000
0000
0000
0010
0000
0000
0000
0000
0000
0100
0000
0000
0000
0000
0000
1000
0000
0000
0000
0000
0000
0001
0000
0000
0000
0000
,
0000
1000
0000
0000
0000
0000
0000
0010
0000
0000
0000
0000
0000
1000
0000
0000
0000
0000
0000
0001
0000
0000
0000
0000
0000
0100
0000
0000
0000
0000
0000
0010
,
0000
0000
0000
0000
0000
0001
0000
0000
0000
0000
0000
0100
0000
0000
0000
0000
0000
1000
0000
0000
0000
0000
0000
0022
0033
0000
0000
0100
0000
0000
0000
1000
,
0000
0000
0000
0000
0000
0010
0000
0000
0000
0000
0000
1000
0000
0000
0000
0000
0000
0001
0000
0000
0000
0000
0000
0010
0000
0000
0000
0000
0000
1002
0000
0000
,
0000
0000
0000
0100
0000
0000
0000
0000
0000
0013
0000
0000
0000
0000
0000
1000
0000
0000
0000
0000
0000
0001
0000
0000
0000
0000
0000
0010
0000
0000
0000
0000
,
0000
1000
0000
0000
0000
0000
0000
0010
0000
0000
0000
0000
0000
2100
0000
0000
0000
0000
0000
0001
0000
0000
0000
0000
0000
3010
0000
0000
0000
0000
0000
0001
,
0000
0000
0000
0000
0000
1000
0000
0000
0000
0000
0000
0010
0000
0000
0000
0000
0000
1000
0000
0000
0000
0000
0000
0100
0000
0000
0000
0000
0000
0010
0000
0000
,
0000
0000
0000
0202
0003
0000
0000
0000
0000
0010
0000
0000
0000
0000
0000
0301
0000
0000
0000
0000
0000
1000
0000
0000
0000
0000
0000
0010
0000
0000
0000
0000
,
0000
1000
0000
0000
0000
0000
0000
0100
0000
0000
0000
0000
0000
0010
0000
0000
0000
0000
0000
2002
3000
0000
0000
0000
0000
0010
0000
0000
0000
0000
0000
0103
,
0000
0000
0000
0000
0000
1000
0000
0000
0000
0000
0000
0001
0000
0000
0000
0000
0000
1000
0000
0000
0000
0000
0000
0010
0000
0000
0000
0000
0000
1000
0000
0000
,
0000
0000
0000
0102
0000
0000
0000
0000
0000
1000
0000
0000
0000
0000
0000
0013
0000
0000
0000
0000
0000
1000
0000
0000
0000
0000
0000
0001
0000
0000
0000
0000
,
0000
0100
0000
0000
0000
0000
0000
1000
0000
0000
0000
0000
0000
0010
0000
0000
0000
0000
0000
0202
0003
0000
0000
0000
0000
0010
0000
0000
0000
0000
0000
1300
,
0000
0000
0000
0000
0000
0010
0000
0000
0000
0000
0000
1000
0000
0000
0000
0000
0000
0001
0000
0000
0000
0000
0000
0010
0000
0000
0000
0000
0000
1000
0000
0000
,
0000
0000
0000
0202
0003
0000
0000
0000
0000
1000
0000
0000
0000
0000
0000
0310
0000
0000
0000
0000
0000
0001
0000
0000
0000
0000
0000
2010
0000
0000
0000
0000
,
0000
0001
0000
0000
0000
0000
0000
3010
0000
0000
0000
0000
0000
1002
0000
0000
0000
0000
0000
0100
0000
0000
0000
0000
0000
0013
0000
0000
0000
0000
0000
1000
,
0000
0000
0000
0000
0000
0100
0000
0000
0000
0000
0000
0001
0000
0000
0000
0000
0000
1000
0000
0000
0000
0000
0000
0010
0000
0000
0000
0000
0000
0102
0000
0000
,
0000
0000
0000
1000
0000
0000
0000
0000
0000
0013
0000
0000
0000
0000
0000
1000
0000
0000
0000
0000
0000
0201
0000
0000
0000
0000
0000
1000
0000
0000
0000
0000
,
0000
0310
0000
0000
0000
0000
0000
1000
0000
0000
0000
0000
0000
0001
0000
0000
0000
0000
0000
2020
3000
0000
0000
0000
0000
0100
0000
0000
0000
0000
0000
1030
,
0000
0000
0000
0000
0000
0001
0000
0000
0000
0000
0000
0010
0000
0000
0000
0000
0000
0100
0000
0000
0000
0000
0000
1000
0000
0000
0000
0000
0000
0210
0000
0000
,
0000
0000
0000
1000
0000
0000
0000
0000
0000
0301
0000
0000
0000
0000
0000
1000
0000
0000
0000
0000
0000
0120
0000
0000
0000
0000
0000
0001
0000
0000
0000
0000
,
0000
1030
0000
0000
0000
0000
0000
0010
0000
0000
0000
0000
0000
1000
0000
0000
0000
0000
0000
0022
0003
0000
0000
0000
0000
0001
0000
0000
0000
0000
0000
1030
,
0000
0000
0000
0000
0000
0001
0000
0000
0000
0000
0000
0010
0000
0000
0000
0000
0000
0100
0000
0000
0000
0000
0000
0010
0000
0000
0000
0000
0000
0102
0000
0000
,
0000
0000
0000
0100
0000
0000
0000
0000
0000
0013
0000
0000
0000
0000
0000
0001
0000
0000
0000
0000
0000
2010
0000
0000
0000
0000
0000
0010
0000
0000
0000
0000
,
0000
3001
0000
0000
0000
0000
0000
0010
0000
0000
0000
0000
0000
0001
0000
0000
0000
0000
0000
2020
3000
0000
0000
0000
0000
0100
0000
0000
0000
0000
0000
1030
,
0000
0000
0000
0000
0000
0100
0000
0000
0000
0000
0010
0000
0000
0000
0000
0001
0000
0000
0000
0000
0000
0010
0000
0000
0000
0000
0000
0001
0000
0000
0000
0000
,
0000
0010
0000
0000
0000
0000
0000
0100
0000
0000
0000
0000
0000
2020
3000
0000
0000
0000
0000
0100
0000
0000
0000
0000
0000
1030
0000
0000
0000
0000
0000
0100
,
0000
0000
0000
0000
0000
0010
0000
0000
0000
0000
0000
0100
0000
0000
0000
0000
0000
0001
0000
0000
0000
0000
0000
0202
0003
0000
0000
0000
0000
0010
0000
0000
,
0000
0000
0000
0301
0000
0000
0000
0000
0000
0010
0000
0000
0000
0000
0000
0100
0000
0000
0000
0000
0000
1000
0000
0000
0000
0000
0000
0120
0000
0000
0000
0000
,
0000
0001
0000
0000
0000
0000
0000
1030
0000
0000
0000
0000
0000
0100
0000
0000
0000
0000
0000
0010
0000
0000
0000
0000
0000
0100
0000
0000
0000
0000
0000
0010
,
0000
0000
0000
0000
0000
0001
0000
0000
0000
0000
0000
2010
0000
0000
0000
0000
0000
0100
0000
0000
0000
0000
0000
3010
0000
0000
0000
0000
0000
0100
0000
0000
,
0000
0000
0000
0010
0000
0000
0000
0000
0000
0001
0000
0000
0000
0000
0000
1000
0000
0000
0000
0000
0000
0001
0000
0000
0000
0000
0000
2010
0000
0000
0000
0000
,
0000
0100
0000
0000
0000
0000
0000
3001
0000
0000
0000
0000
0000
0010
0000
0000
0000
0000
0000
0100
0000
0000
0000
0000
0000
1000
0000
0000
0000
0000
0000
0001
,
0000
0000
0000
0000
0000
1000
0000
0000
0000
0000
0000
0210
0000
0000
0000
0000
0000
1000
0000
0000
0000
0000
0000
0310
0000
0000
0000
0000
0000
0100
0000
0000
,
0000
0000
0000
1000
0000
0000
0000
0000
0000
0100
0000
0000
0000
0000
0000
0001
0000
0000
0000
0000
0000
0010
0000
0000
0000
0000
0000
2100
0000
0000
0000
0000
,
0000
0001
0000
0000
0000
0000
0000
3010
0000
0000
0000
0000
0000
0001
0000
0000
0000
0000
0000
0010
0000
0000
0000
0000
0000
0100
0000
0000
0000
0000
0000
0010
,
0000
0000
0000
0000
0000
0100
0000
0000
0000
0000
0000
0010
0000
0000
0000
0000
0000
2002
3000
0000
0000
0000
0000
0100
0000
0000
0000
0000
0000
0013
0000
0000
,
0000
0000
0000
0001
0000
0000
0000
0000
0000
1000
0000
0000
0000
0000
0000
0100
0000
0000
0000
0000
0000
0001
0000
0000
0000
0000
0000
0100
0000
0000
0000
0000
,
0000
2020
0030
0000
0000
0000
0000
0100
0000
0000
0000
0000
0000
3010
0000
0000
0000
0000
0000
0001
0000
0000
0000
0000
0000
0010
0000
0000
0000
0000
0000
0100
,
0000
0000
0000
0000
0000
0001
0000
0000
0000
0000
0000
0010
0000
0000
0000
0000
0000
0100
0000
0000
0000
0000
0000
1020
0000
0000
0000
0000
0000
0100
0000
0000
,
0000
0000
0000
0031
0000
0000
0000
0000
0000
1000
0000
0000
0000
0000
0000
0000
0000
0010
0000
0000
0000
0000
0000
0001
0000
0000
0000
0000
0000
2010
0000
0000
,
0000
0000
0000
0100
0000
0000
0000
0000
0000
3001
0000
0000
0000
0000
0000
1000
0000
0000
0000
0000
0000
0010
0000
0000
0000
0000
0000
0001
0000
0000
0000
0000
,
0000
1000
0000
0000
0000
0000
0000
0010
0000
0000
0000
0000
0000
0201
0000
0000
0000
0000
0000
1000
0000
0000
0000
0000
0000
0310
0000
0000
0000
0000
0000
1000
,
0000
0000
0000
0000
0000
0001
0000
0000
0000
0000
0000
0010
0000
0000
0000
0000
0000
1000
0000
0000
0000
0000
0000
0001
0000
0000
0000
0000
0000
0120
0000
0000
,
0000
0000
0000
0001
0000
0000
0000
0000
0000
0130
0000
0000
0000
0000
0000
1000
0000
0000
0000
0000
0000
0210
0000
0000
0000
0000
0000
1000
0000
0000
0000
0000
,
0000
0301
0000
0000
0000
0000
0000
0100
0000
0000
0000
0000
0000
0021
0000
0000
0000
0000
0000
0100
0000
0000
0000
0000
0000
0031
0000
0000
0000
0000
0000
0010
,
0000
0000
0000
0000
0000
1000
0000
0000
0000
0000
0000
0100
0000
0000
0000
0000
0000
0001
0000
0000
0000
0000
0000
1000
0000
0000
0000
0000
0000
0220
0030
0000
,
0000
0000
0000
1000
0000
0000
0000
0000
0000
0301
0000
0000
0000
0000
0000
0010
0000
0000
0000
0000
0000
1000
0000
0000
0000
0000
0000
0100
0000
0000
0000
0000
,
0000
0010
0000
0000
0000
0000
0000
1000
0000
0000
0000
0000
0000
0202
0003
0000
0000
0000
0000
0001
0000
0000
0000
0000
0000
0310
0000
0000
0000
0000
0000
0100
,
0000
0000
0000
0000
0000
0010
0000
0000
0000
0000
0000
0001
0000
0000
0000
0000
0000
0100
0000
0000
0000
0000
0000
0001
0000
0000
0000
0000
0000
0120
0000
0000
,
0000
0000
0000
0001
0000
0000
0000
0000
0000
1000
0000
0000
0000
0000
0000
0130
0000
0000
0000
0000
0000
1000
0000
0000
0000
0000
0000
0010
0000
0000
0000
0000
,
0000
1000
0000
0000
0000
0000
0000
0001
0000
0000
0000
0000
0000
0220
0330
0000
0000
0000
0000
0000
0000
0000
0010
0000
0000
0000
0000
0000
0000
0000
1002
0000
,
0000
0000
0000
0000
0000
0000
0103
0000
0000
0000
0000
0000
0000
1020
0000
0000
0000
0000
0000
0000
0000
0031
0000
0000
0000
0000
0000
1000
0000
0000
0000
0000
,
0000
0000
0000
0001
0000
0000
0000
0000
0000
0000
0000
0210
0000
0000
0000
0000
0000
0000
0000
1300
0000
0000
0000
0000
0000
0000
0000
1002
0000
0000
0000
0000
,
0000
0000
0000
0103
0000
0000
0000
0000
0000
0000
0000
0010
0000
0000
0000
0000
0000
0000
0000
0001
0000
0000
0000
0000
0000
0000
0000
0100
0000
0000
0000
0000
,
0000
0000
0000
0010
0000
0000
0000
0000
0000
0000
0000
1020
0000
0000
0000
0000
0000
0000
0000
1031
0000
0000
0000
0000
0000
0000
0000
0100
0000
0000
0000
0000
,
0000
0000
0010
0000
0000
0000
0000
0000
0000
1000
0000
0000
0000
0000
0000
0000
0000
0010
0000
0000
0000
0001
0000
0000
0000
1000
0000
0000
0000
0000
0000
0000
,
0000
0100
0000
0000
0000
0000
0000
0000
0000
0010
0000
0000
0000
0000
0000
0000
0000
0001
0000
0000
0000
0000
0000
0000
0000
1020
0000
0000
0000
0000
0000
0000
,
0000
1030
0000
0000
0000
0000
0000
0000
0000
1000
0000
0001
0000
0000
0000
0000
0000
0100
0000
0000
0000
0000
0000
0001
0000
0000
0000
0000
0000
0000
0000
1000
,
0000
0000
0000
0001
0000
0000
0000
0100
0000
0000
0000
0000
0000
0010
0000
0000
0000
0000
0000
0001
0000
0000
0000
0000
0000
0000
0000
1000
0000
0000
0000
0000
,
0000
0000
0000
0100
0000
0000
0000
0000
0000
0000
0000
0001
0000
0000
0000
0000
0000
0000
0000
1020
0000
0000
0000
0000
0000
0000
0000
0130
0000
0000
0000
0000
,
0000
0000
0000
0001
0000
0000
0000
0000
0000
0000
0000
0010
0000
0000
0000
0000
0000
0000
0000
0201
0000
0000
0000
0000
0000
0000
0000
1300
0000
0000
0000
0000
,
0000
0000
0000
1000
0000
0000
0000
0002
0000
0000
0000
0013
0000
0000
0000
0000
0000
0100
0000
0000
0000
0000
0000
0000
0000
1000
0000
0000
0000
0000
0000
0000
,
0000
0100
0000
0000
0000
0002
0000
0000
0000
1003
0000
0000
0000
0000
0000
0000
0000
1000
0000
0000
0000
0200
0000
0000
0000
0310
0000
0000
0000
0000
0000
1000
,
0000
0000
0000
0000
0000
0000
0000
0201
0000
0000
0000
0000
0000
0000
0000
1300
0000
0000
0000
0002
0000
0000
0000
1003
0000
0000
0000
0000
0000
0000
0000
1200
,
0000
0000
0000
0000
0000
0310
0000
0000
0000
0000
0000
0000
1001
0000
0000
0000
0000
0000
0000
0000
1000
0000
0000
0000
0200
0000
0000
0000
0301
0000
0000
0000
,
0000
1000
0000
0100
0000
0010
0000
0201
,
0000
1300
0000
0010
0000
0100
0000
0010
,
0000
1002
0000
0103
0000
1020
0000
1030
,
0000
0010
0000
0000
0000
0100
0000
0000
0000
1000
0000
0000
0000
1000
0000
0002
,
0000
0000
1003
0000
0000
0000
0000
0000
0000
0000
0010
0000
0000
0000
0000
0000
0000
0000
0100
0000
0000
0000
0000
2001
0000
0000
0000
0000
0000
0000
0000
3100
,
0000
0000
0000
0000
0000
0000
0000
0010
0000
0000
0000
0000
0000
0000
0000
1200
0000
0000
0000
0000
0000
0000
0000
0310
0000
0000
0000
0000
0000
0201
0000
0000
,
0000
0000
0000
0000
0000
1300
0000
0000
0000
0000
0000
0000
0000
0001
0000
0000
0000
0000
0000
0000
0000
0100
0000
0000
0000
0000
0000
0000
0000
0010
0000
0000
,
0000
0000
0000
0000
0000
1000
0000
0000
0000
0000
0000
0000
0000
0100
0000
0000
0000
0002
0000
0000
0000
1003
0000
0000
0000
0000
0000
0000
0000
0010
0000
0000
,
0000
0000
0000
0000
0000
1000
0000
0000
0000
0000
0000
0000
0000
0010
0000
0000
0000
0000
0000
0000
0000
2001
0000
0000
0000
0000
0000
0000
0000
3010
0000
0000
,
0000
0000
0000
0000
0000
1002
0000
0000
0000
0000
0000
0000
0000
0103
0000
0000
0000
0000
0000
0000
0000
2001
0000
0000
0000
0000
0000
0000
0000
3010
0000
0000
,
0000
0000
0000
0000
0000
0100
0000
0000
0000
0000
0000
0000
0000
1000
0000
0000
0000
0000
0000
0001
0000
0000
0200
0000
0000
0301
0000
0000
0000
0000
0000
1000
,
0000
0000
0000
0000
0000
0000
0000
1000
0000
0020
0000
0130
0000
0000
0000
0000
0000
2000
0000
0000
0000
0000
3000
0012
0000
0000
0000
0000
0000
0000
0000
0000
,
0000
0000
0000
0000
0000
0000
0000
0000
0000
0000
0000
0000
0000
0000
0000
0000
0000
0000
0000
0000
0000
0000
0000
0000
0000
0000
0000
0000
0000
0000
0000
0003
,
0000
0000
0000
0000
0000
0000
0000
0000
0000
0000
0000
0000
0010
0000
0000
0000
0000
0001
0000
0000
0000
0000
0100
0000
0000
0000
0000
0010
0000
0000
0000
0000
,
1000
0000
0000
0000
0000
0100
0000
0000
0000
0000
0001
0000
0000
0000
0000
0010
0000
0000
0000
0000
0001
0000
0000
0000
0000
0100
0000
0000
0000
0000
1000
0000
,
0000
0000
0000
0000
0002
0000
0000
0010
0000
0000
0100
0000
0003
0010
0000
0000
1000
0000
0000
0100
0000
0000
0010
0000
0000
0100
0000
0000
1000
0000
0000
0010
,
0000
0000
0100
0000
0000
1000
0000
0000
0100
0000
0000
0010
0000
0000
0001
0000
0000
1000
0000
0000
0100
0000
0000
0010
0000
0000
0100
0000
0000
1000
0000
0000
,
0001
0000
0000
0010
0000
0000
0100
0000
0000
1000
0000
0000
0100
0000
0000
0010
0000
0000
0001
0000
0000
1000
0000
0000
0100
0000
0000
0010
0000
0000
0100
0000
,
0000
1000
0000
0000
0100
0000
0000
0010
0000
0000
0002
0000
0000
0000
0000
0000
0000
0000
0000
0000
0000
0000
0000
0000
0000
0000
0000
0000
0000
0003
2000
0000
,
0000
0000
0000
0000
0000
0000
0000
0000
0000
0000
0000
0000
0000
0000
0000
3000
0200
0000
0000
0000
0000
0000
0000
0000
0000
0000
0000
0000
0000
0300
0000
0000
,
0000
0001
0000
0000
1000
0000
0000
0001
0000
0000
0000
0000
0000
0000
0000
0000
0000
0000
0220
0330
0000
0000
0000
0000
0000
0000
0000
0000
0000
0000
0000
0000
,
2002
3003
0000
0000
0000
0000
0000
0000
0000
0000
0000
0000
2020
3030
0000
0000
0000
0000
0000
0100
0000
0010
0000
0002
0000
0000
0000
0000
0000
0000
0000
0000
,
0000
0000
0000
0000
0000
0000
1003
0000
0000
0100
0000
0000
0010
0000
0000
0001
0000
0000
1000
0000
0000
0100
0000
0000
0010
0000
0000
0001
0000
0000
0010
0000
,
0000
0100
0000
0000
1000
0000
0000
0100
0000
0000
0010
0000
0000
0001
0000
0000
0020
0000
0000
0000
0000
0000
0000
0000
0000
0000
0000
0000
0000
0000
0000
0000
,
0000
0000
0000
0000
,
0000
0030
0000
0000
2002
0000
0000
3003
0000
0000
0000
0000
0000
0000
0000
0000
0000
0000
0000
0000
0000
0000
0000
0000
0000
0000
0000
0000
0000
0000
0000
0200
,
0000
0000
0000
0000
0000
0000
0300
1002
,
0000
0000
0000
0000
,
0000
0000
0000
0000
0000
0000
0000
0000
0000
0000
0000
0000
0000
0000
0003
0000
0000
0220
0000
0000
0330
0000
0000
0000
0000
0000
0000
0000
0000
0000
0000
0000
,
0000
0000
0000
0000
0000
0000
0000
0021
0000
0000
0000
0000
0000
0000
0000
0000
,
0000
0000
0000
0000
0000
0030
0000
2100
0000
0000
0000
0000
0000
0000
0000
0000
0000
0000
0000
0000
0000
0000
0000
0000
0000
0000
0000
0000
0000
0000
0000
0000
,
0000
0000
0000
0000
0000
0000
0000
0000
0000
0000
0000
0000
0000
0000
0000
0000
3000
0000
0000
0000
0000
2000
0000
0000
0000
0000
3000
0002
0003
0020
0030
0200
,
0300
2000
3000
0200
0300
0020
0030
0002
0003
0020
0030
0200
0300
2000
3000
0200
0300
0020
0030
0002
0003
0020
0030
0200
0300
2000
3000
0200
0300
0020
0030
0002
,
0003
0000
0020
0000
0030
0200
0000
0300
2000
0000
3000
0200
0000
0300
0020
0000
0030
0002
0000
0003
0020
0000
0000
0030
0200
0000
0000
0300
2000
0000
0000
3000
,
0002
0000
0000
0003
0020
0000
0000
0030
0200
0000
0000
0300
2000
0000
0000
3000
0002
0000
0000
0003
0020
0000
0000
0030
0200
0000
0000
0300
2000
0000
0000
3000
,
0200
0000
0000
0300
0020
0000
0000
0000
0030
0002
0000
0000
0000
0003
2000
0000
0000
0000
3000
0200
0000
0000
0000
0300
0020
0000
0000
0000
0030
0002
0000
0000
,
0000
0003
2000
0000
0000
0000
3000
0200
0000
0000
0000
0300
0020
0000
0000
0000
0030
0002
0000
0000
0000
0003
2000
0000
0000
0000
0000
3000
0200
0000
0000
0000
,
0000
0300
0020
0000
0000
0000
0000
0030
0002
0000
0000
0000
0000
0003
2000
0000
0000
0000
0000
3000
0200
0000
0000
0000
0000
0300
0020
0000
0000
0000
0000
0030
,
0002
0000
0000
0000
0000
0003
2000
0000
0000
0000
0000
3000
0200
0000
0000
0000
0000
0300
0002
0000
0000
0010
0000
0000
0000
0000
0000
0100
0000
0000
0000
0000
,
0000
1000
0000
0000
0000
0000
0000
0010
0000
0000
0000
0000
0000
2200
0000
3300
0000
0000
0000
0010
0000
0000
0000
0000
0000
0100
0000
0000
0000
0000
0000
0010
,
0000
0000
0000
0000
0000
1000
0000
0000
0000
0000
0000
0010
0000
0000
0000
0000
0000
1000
0000
0000
0000
0000
0000
0100
0000
0000
0000
0000
0000
0010
0000
0000
,
0000
0000
0000
2020
0000
3030
0000
0000
0000
0100
0000
0000
0000
0000
0000
1000
0000
0000
0003
0000
0000
0010
0000
0000
0000
0000
0000
0001
0000
0000
0000
0000
,
0000
1000
0000
0000
0000
0000
0000
0010
0000
0000
0000
0000
0000
0100
0000
0000
0000
0000
0000
0001
0000
0000
0000
0000
0000
2200
0000
3300
0000
0000
0000
0010
,
0000
0000
0000
0000
0000
0001
0000
0000
0000
0000
0000
0010
0000
0000
0000
0000
0000
1000
0000
0000
0000
0000
0000
0100
0000
0000
0000
0000
0000
0010
0000
0000
,
0000
0000
0000
0100
0000
0000
0000
0000
0000
0001
0000
0000
0000
0000
0000
0220
0000
0330
0000
0000
0000
1000
0000
0000
0000
0000
0000
0100
0000
0000
0000
0000
,
0000
0001
0000
0000
0000
0000
0000
0100
0000
0000
0000
0000
0000
0010
0000
0000
0000
0000
0000
0001
0000
0000
0000
0000
0000
0100
0000
0000
0000
0000
0000
0001
,
0000
0000
0000
0000
0000
2020
0000
3030
0000
0000
0000
0100
0000
0000
0000
0000
0000
0001
0000
0000
0000
0000
0000
0010
0000
0000
0000
0000
0000
0100
0000
0000
,
0000
0000
0000
0010
0000
0000
0000
0000
0000
0001
0000
0000
0000
0000
0000
1000
0000
0000
0000
0000
0000
0001
0000
0000
0000
0000
0000
2200
0000
3300
0000
0000
,
0000
0010
0000
0000
0000
0000
0000
0100
0000
0000
0000
0000
0000
0001
0000
0000
0000
0000
0000
1000
0000
0000
0000
0000
0000
0010
0000
0000
0000
0000
0000
1000
,
0000
0000
0000
0000
0000
0010
0000
0000
0000
0000
0000
0001
0000
0000
0000
0000
0000
2200
0000
3300
0000
0000
0000
0001
0000
0000
0000
0000
0000
0100
0000
0000
,
0000
0000
0000
0001
0000
0000
0000
0000
0000
1000
0000
0000
0000
0000
0000
0100
0000
0000
0000
0000
0000
1000
0000
0000
0000
0000
0000
0010
0000
0000
0000
0000
,
0000
0100
0000
0000
0000
0000
0000
2002
0000
3003
0000
0000
0000
0100
0000
0000
0000
0000
0000
0001
0000
0000
0000
0000
0000
1000
0000
0000
0000
0000
0000
0100
,
0000
0000
0000
0000
0000
0010
0000
0000
0000
0000
0000
1000
0000
0000
0000
0000
0000
0010
0000
0000
0000
0000
0000
0001
0000
0000
0000
0000
0000
0220
0000
0330
,
0000
0000
0000
0001
0000
0000
0000
0000
0000
1000
0000
0000
0000
0000
0000
0100
0000
0000
0000
0000
0000
0010
0000
0000
0000
0000
0000
1000
0000
0000
0000
0000
,
0000
0001
0000
0000
0000
0000
0000
0100
0000
0000
0000
0000
0000
0001
0000
0000
0000
0000
0000
2200
0000
3300
0000
0000
0000
0010
0000
0000
0000
0000
0000
1000
,
0000
0000
0000
0000
0000
0001
0000
0000
0000
0000
0000
0010
0000
0000
0000
0000
0000
1000
0000
0000
0000
0000
0000
0010
0000
0000
0000
0000
0000
0001
0000
0000
,
0000
0000
0000
0100
0000
0000
0000
0000
0000
0022
0000
0033
0000
0000
0000
0100
0000
0000
0000
0000
0000
0001
0000
0000
0000
0000
0000
0010
0000
0000
0000
0000
,
0000
0001
0000
0000
0000
0000
0000
0100
0000
0000
0000
0000
0000
1000
0000
0000
0000
0000
0000
0001
0000
0000
0000
0000
0000
0010
0000
0000
0000
0000
0000
0202
,
0000
0303
0000
0000
0000
0010
0000
0000
0000
0000
0000
1000
0000
0000
0000
0000
0000
0010
0000
0000
0000
0000
0000
0001
0000
0000
0000
0000
0000
0100
0000
0000
,
0000
0000
0000
0010
0000
0000
0000
0000
0000
1000
0000
0000
0000
0000
0000
0001
0000
0000
0000
0000
0000
2020
0000
3030
0000
0000
0000
0100
0000
0000
0000
0000
,
0000
0010
0000
0000
0000
0000
0000
0001
0000
0000
0000
0000
0000
0100
0000
0000
0000
0000
0000
0010
0000
0000
0000
0000
0000
1000
0000
0000
0000
0000
0000
0100
,
0000
0000
0000
0000
0000
1000
0000
0000
0000
0000
0000
2200
0000
3300
0000
0000
0000
0010
0000
0000
0000
0000
0000
0100
0000
0000
0000
0000
0000
0010
0000
0000
,
0000
0000
0000
1000
0000
0000
0000
0000
0000
0001
0000
0000
0000
0000
0000
0010
0000
0000
0000
0000
0000
1000
0000
0000
0000
0000
0000
0001
0000
0000
0000
0000
,
0000
2200
0000
3300
0000
0000
0000
0010
0000
0000
0000
0000
0000
0001
0000
0000
0000
0000
0000
0100
0000
0000
0000
0000
0000
0001
0000
0000
0000
0000
0000
1000
,
0000
0000
0000
0000
0000
0001
0000
0000
0000
0000
0000
0100
0000
0000
0000
0000
0000
0001
0000
0000
0000
0000
0000
2020
0000
3030
0000
0001
0000
0000
0000
0100
,
0000
0000
0000
0001
0000
0000
0000
0100
0000
0000
0000
0001
0000
0000
0000
0020
0000
1000
0000
0001
0000
1000
0000
0001
0000
1000
0000
0001
0000
1000
0000
0001
,
0000
1000
0000
0001
0000
1000
0000
0001
0000
1000
0000
0001
0000
1000
0000
0001
0000
1000
0000
0031
0000
0000
0000
0000
0000
0000
0000
0000
0000
0000
0000
0000
,
0000
0000
0000
0000
0000
0000
0000
0000
0000
0000
0000
0000
0000
0200
0000
0010
0000
0001
0000
0010
0000
0001
0000
0010
0000
0001
0000
0010
0000
0001
0000
0010
,
0000
0001
0000
0010
0000
0001
0000
0010
0000
0301
0000
0000
0000
0000
0000
0000
0000
0000
0000
0000
0000
0000
0000
0000
0000
0000
0000
0000
0000
0000
0020
0000
,
0100
1000
0100
1000
0100
1000
0100
1000
0100
1000
0130
0000
0000
0000
0000
0000
,
0000
0000
0000
0000
0000
0000
0002
0010
1000
0010
1000
0010
1000
0013
0000
0000
,
0000
0000
0000
0000
0000
0000
0000
0000
0000
2000
0000
0100
0000
0010
0000
0100
0000
0010
0000
0100
0000
3012
0000
0000
0000
0000
0000
0000
0000
0000
0000
0000
,
0000
0000
0000
0000
0000
0003
0100
0000
1000
0000
0010
0000
0000
0001
0000
0000
0000
0000
0010
0000
0000
0000
0000
0000
0000
0100
0000
0000
0000
1000
0000
0000
,
0000
0010
0000
0000
0000
0102
0000
0000
0000
0000
0000
0000
0000
0000
0000
0000
0003
0000
0000
0000
0020
0000
0030
0200
0300
0002
0003
2000
3000
0020
0000
0030
,
0200
0000
0300
0002
0000
0000
0003
2000
0000
0000
0000
0000
3000
0020
0000
0000
0030
0200
0000
0000
0000
0000
0300
2002
0000
3003
0000
0000
0010
0000
0000
0000
,
0000
0100
0000
0000
0000
0022
0000
0033
0000
0000
0100
0000
0000
0000
0000
0010
0000
0000
0000
0000
2200
0000
3300
0000
0000
0001
0000
0000
0000
0010
0000
0000
,
0000
0000
0220
0000
0330
0000
0000
0001
0000
0000
0000
0000
1000
0000
0000
0000
0000
2002
0000
3003
0000
0000
0010
0000
0000
0000
0000
0100
0000
0000
0000
2002
,
0000
3003
0000
0000
0000
0000
0000
0001
0010
0100
0000
0000
0000
0000
0000
1000
0000
0100
0000
0010
0000
0001
0000
0000
0000
0100
0000
0000
0000
0000
0010
0000
,
0000
0000
0000
1000
0000
0000
0000
0010
0000
0000
0000
0000
0200
0000
0000
0000
0000
0000
0000
0000
0000
0000
0000
0000
0000
0300
0000
0001
0000
0000
1000
0000
,
0010
0000
0000
0100
0000
0001
0000
1000
0000
0000
0010
0000
0000
0000
0000
0100
0000
0000
0000
0001
0000
0000
0000
0000
0020
0000
0000
0000
0000
0000
0000
0000
,
0000
0000
0000
0000
0000
0030
2000
0000
0000
0000
0000
0000
0000
0000
0000
0000
0000
0000
0000
3000
0020
0000
0000
0000
0000
0000
0000
0000
0000
0000
0000
0000
,
0000
0000
0000
0000
0030
0000
0002
0000
0000
0000
0000
0000
0000
0000
0000
0000
0000
0000
0000
0000
0000
0000
0000
0000
0000
0000
0000
0000
0000
0000
0000
0000
0003
0000
0200
0000
0000
0000
0000
0000
0000
0000
0000
0000
0000
0000
0000
0000
0000
0000
0300
0000
2002
0000
0000
0000
0000
0000
0000
0000
0000
3003
0000
0000
,
0000
0000
0000
0000
0200
0000
0000
0000
0000
0000
0000
0000
0000
0000
0000
0300
0002
0000
0000
0000
0000
0000
0000
0000
0000
0000
0000
0000
0000
0003
2000
0000
,
0000
0000
0000
0000
0000
0000
0000
0000
0000
0000
0000
3000
0020
0000
0000
0000
0000
0000
0000
0000
0000
0000
0000
0000
0030
2000
0000
0000
0000
0000
0000
0000
,
0000
3000
0220
0000
0000
0000
0000
0000
0000
0330
0000
0000
0000
0000
0000
0000
0000
0000
0000
2002
3003
0000
0000
0000
2020
3030
0000
0000
0202
0303
0000
0000
,
2020
3030
0000
0000
0202
0303
0000
0000
2002
3003
0000
0000
0220
0000
0000
0330
0000
0000
0000
0000
0202
0303
0000
0000
0000
0000
2200
3300
0000
0000
0000
2020
,
3030
0000
0000
0000
0220
0330
0000
0000
0000
0202
0303
0000
0000
2002
3003
0000
0000
0000
0220
0000
0000
0330
0000
0000
0000
0000
0000
0000
0000
0022
0033
0000
,
0000
0000
0000
2200
3300
0000
0000
0000
0202
0303
0000
0000
0000
0000
2020
3030
0000
0000
0000
0000
2002
3003
0000
0000
0000
0022
0033
0000
0000
0000
0000
2200
,
0000
0000
3300
0000
0000
0000
0000
0000
0000
0000
0000
0202
0303
0000
0000
0000
0000
0000
2002
3003
0000
0000
0000
0000
2020
3030
0000
0000
0000
0000
0000
0220
,
0330
0000
0000
0000
0000
2020
3030
0000
0000
0000
0000
0202
0303
0000
0000
0000
0000
0000
2002
0000
0000
3003
0000
0000
0000
0000
0000
0000
0000
0000
0000
0000
,
0000
0220
0330
0000
0000
0000
0000
0000
0202
0303
0000
0000
0000
0000
0000
2200
3300
0000
0000
0000
0000
0000
0000
2002
3003
0000
0000
0000
0000
0000
0202
0303
,
0000
0000
0000
0000
0000
0000
2020
3030
0000
0000
0000
0000
0000
0000
0220
0000
0000
0330
0000
0000
0000
0000
0000
0000
0000
0000
0000
0000
0000
0000
0202
0303
,
0000
0000
0000
0000
0000
0000
0000
0022
0033
0000
0000
0000
0000
0000
0000
2200
3300
0000
0000
0000
0000
0000
0000
0220
0330
0000
0000
0000
0000
0000
0202
0303
,
0000
0000
0000
0000
0000
0000
2020
3030
0000
0000
0000
0000
0000
0022
0000
0000
0033
0000
0000
0000
0000
0000
0000
0000
0000
0000
0000
0000
0000
2002
3003
0000
,
0000
0000
0000
0000
0000
0000
0220
0330
0000
0000
0000
0000
0000
0000
0022
0033
0000
0000
0000
0000
0000
0000
2200
3300
0000
0000
0000
0000
0000
0202
0303
0000
,
0000
0000
0000
0000
2020
3030
0000
0000
0000
0000
0000
0000
0220
0000
0000
0330
0000
0000
0000
0000
0000
0000
0000
0000
0000
0000
0000
0022
0033
0000
0000
0000
,
0000
0000
0000
0202
0303
0000
0000
0000
0000
0000
0000
0000
2002
3003
0000
0000
0000
0000
0000
0202
0303
0000
0000
0000
0000
0000
0000
0022
0033
0000
0000
0000
,
0000
0000
0000
2200
3300
0000
0000
0000
0000
0000
0000
2002
0000
0000
3003
0000
0000
0000
0000
0000
0000
0000
0000
0000
0000
0000
0201
0000
0000
0000
0000
0000
,
0000
0000
0000
0000
0000
0000
0000
0000
0000
0000
0000
0000
0000
1320
0000
0000
0000
0000
0000
0000
0000
0000
0000
0000
0000
0000
0000
0000
0000
0000
0000
0000
,
0000
0000
0132
0000
0000
0000
0000
0000
0000
0000
0000
0000
0000
0000
0000
0000
0000
0000
0000
0000
0000
0000
0000
2013
0000
0000
0000
0000
0000
0000
0000
0000
,
0000
0000
0000
0000
0000
0000
0000
0000
0000
0000
0000
3021
0000
0000
0000
0000
0000
0000
0000
0000
0000
0000
0000
0000
0000
0000
0000
0000
0000
0000
0000
0231
,
0000
0000
0000
0000
0000
0000
0000
0000
0000
0000
0000
0000
0000
0000
0000
0000
0000
0000
0000
1320
0000
0000
0000
0000
0000
0000
0000
0000
0000
0000
0000
0000
,
0000
0000
0000
0000
0000
0000
0000
2130
0000
0000
0000
0000
0000
0000
0000
0000
0000
0000
0000
0000
0000
0000
0000
0000
0000
0000
0000
3021
0000
0000
0000
0000
,
0000
0000
0000
0000
0000
0000
0000
0000
0000
0000
0000
0000
0000
0000
0000
1230
0000
0000
0000
0000
0000
0000
0000
0000
0000
0000
0000
0000
0000
0000
0000
0000
,
0000
0000
0000
2310
0000
0000
0000
0000
0000
0000
0000
0000
0000
0000
0000
0000
0000
0000
0000
0000
0000
0000
0000
3021
0000
0000
0000
0000
0000
0000
0000
0000
,
0000
0000
0000
0000
0000
0000
0000
0000
0000
0000
0000
0000
0000
1230
0000
0000
0000
0000
0000
0000
0000
0000
0000
0000
0000
0000
0000
0000
0000
0000
0000
0000
,
0000
0321
0000
0000
0000
0000
0000
0000
0000
0000
0000
0000
0000
0000
0000
0000
0000
0000
0000
0000
0000
2130
0000
0000
0000
0000
0000
0000
0000
0000
0000
0000
,
0000
0000
0000
0000
0000
0000
0000
0000
0000
3021
0000
0000
0000
0000
0000
0000
0000
0000
0000
0000
0000
0000
0000
0000
0000
0000
0000
0000
0000
0132
0000
0000
,
0000
0000
0000
0000
0000
0000
0000
0000
0000
0000
0000
0000
0000
0000
0000
0000
0000
0213
0000
0000
0000
0000
0000
0000
0000
0000
0000
0000
0000
0000
0000
0000
,
0000
0000
0000
0000
2301
0000
0000
0000
0000
0000
0000
0000
0000
0000
0000
0000
0000
0000
0000
0000
0000
0000
0000
0000
0000
3120
0000
0000
0000
0000
0000
0000
,
0000
0000
0000
0000
0000
0000
0000
0000
0000
0000
0000
0000
0000
1230
0000
0000
0000
0000
0000
0000
0000
0000
0000
0000
0000
0000
0000
0000
0000
0000
0000
0000
,
0000
0000
0321
0000
0000
0000
0000
0000
0000
0000
0000
0000
0000
0000
0000
0000
0000
0000
0000
0000
0000
0000
0000
2031
0000
0000
0000
0000
0000
0000
0000
0000
,
0000
0000
0000
0000
0000
0000
0000
0000
0000
0000
0000
3120
0000
0000
0000
0000
0000
0000
0000
0000
0000
0000
0000
0000
0000
0000
0000
0000
0000
0000
0000
0231
,
0000
0000
0000
0000
0000
2310
0000
0000
,
0000
0000
0000
0000
0000
0000
0000
0000
3210
0000
0000
0000
0000
0000
0000
0000
0000
0000
0000
0000
0000
0000
0000
0000
0000
0000
0000
2310
0000
0000
0000
0000
,
0000
0000
0000
0000
0000
0000
0000
0000
0000
0000
0000
0000
0000
0000
0000
3210
0000
0000
0000
0000
0000
0000
0000
0000
0000
0000
0000
0000
0000
0000
0000
0000
,
0000
0321
0000
0000
0000
0000
1032
0000
,
0000
0000
0000
0000
0000
0000
0000
0000
0000
0000
0000
0000
0000
2103
0000
0000
0000
0000
0000
0000
0000
0000
0000
0000
0000
0000
0000
0000
0000
0000
0000
3000
,
0012
0000
0000
0000
0000
0000
0000
0120
0000
0000
0000
0030
0000
0000
1200
0000
0000
0000
0303
0000
0000
0000
0000
0000
0000
0000
0000
0000
0000
0000
0000
0000
,
0011
0000
0000
0000
0100
0000
0000
1010
0000
0000
0000
0100
0000
0000
0011
0000
0000
0000
0100
0000
1010
0000
0000
0001
0000
0000
0000
0110
0000
0001
0000
0000
,
0000
0110
0000
0000
2100
0000
0000
0000
0000
0000
0000
0210
0000
0000
0000
0300
0000
0021
0000
0000
0000
0000
3030
0000
0000
0000
0000
0000
0000
0000
0000
0000
,
0000
0000
0000
0000
0011
0000
0000
0000
0110
0000
0000
0011
0000
0000
1100
0000
0000
0000
0011
0000
0000
1100
0000
0000
0000
0011
0000
1010
0000
0000
0000
1010
,
0000
0101
0000
0000
0000
0110
0000
0000
0000
2002
0000
0000
0000
0000
0000
0000
3003
0000
0000
0000
0000
0000
0000
2000
0000
0000
0000
0000
0000
0000
0000
0000
,
0000
0000
0000
0000
0000
0000
0000
0000
0000
0000
0000
0000
0000
0000
0000
0200
0000
0000
0000
0000
0000
0000
0000
0000
0000
0000
0000
0000
0000
0000
0000
0000
,
0000
0000
0000
0000
0000
0000
0000
0000
0000
0000
0000
0000
0000
0000
0000
0000
0000
0000
0000
0000
0300
0220
0000
0000
0000
0000
0000
0000
0000
0000
0000
0000
,
0000
0000
0000
0000
,
0000
0000
0000
0000
0000
0000
0000
0000
0000
0000
0000
0000
0000
3330
0001
0000
0010
0000
0001
0000
0010
0000
0001
0000
0010
0000
0001
0000
0010
0000
0001
0000
,
0100
0001
0100
0001
0100
0001
0100
0001
1000
0001
1000
0001
1000
0001
1000
0001
,
1000
0010
1000
0010
1000
0010
1000
0010
1000
0100
1000
0100
1000
0100
1000
0100
,
1000
0000
0010
0000
1000
0000
0001
0000
1000
0000
0010
0000
1000
0000
0100
0000
0000
2002
3003
0000
0000
0000
0000
0000
0000
0000
0000
0000
0000
0000
0220
0000
,
0000
0000
0000
0000
0330
2002
0000
0000
0000
0000
3003
0220
0000
0000
0000
0000
0000
0000
0000
0000
0000
0000
0000
0000
0000
0000
0000
0000
0000
0000
0000
0000
,
0000
0000
0000
0000
,
0000
0000
0000
0000
,
0000
0000
0000
0000
,
0000
0000
0000
0000
,
0000
0000
0000
0000
,
0000
0000
0000
0000
,
0330
0000
0000
0000
;
